<?xml version="1.0" standalone="no"?>
<!DOCTYPE svg PUBLIC "-//W3C//DTD SVG 1.1//EN" "http://www.w3.org/Graphics/SVG/1.1/DTD/svg11.dtd" >
<svg xmlns="http://www.w3.org/2000/svg" xmlns:xlink="http://www.w3.org/1999/xlink" version="1.1">
<metadata>
Created by FontForge 20201107 at Fri Dec 20 13:47:52 2024
 By 
Copyright 2024 The Merriweather Project Authors (https://github.com/EbenSorkin/Merriweather4) with Reserved Font Name "Merriweather".
</metadata>
<defs>
<font id="Merriweather-Light" horiz-adv-x="0" >
  <font-face 
    font-family="Merriweather Light"
    font-weight="300"
    font-stretch="normal"
    units-per-em="2000"
    panose-1="0 0 0 0 0 0 0 0 0 0"
    ascent="1600"
    descent="-400"
    x-height="1110"
    cap-height="1486"
    bbox="-700 -961 2784 2413"
    underline-thickness="60"
    underline-position="-274"
    unicode-range="U+0020-FB02"
  />
<missing-glyph horiz-adv-x="1744" 
d="M180 0v1382h1384v-1382h-1384zM554 246l316 344l330 -344l110 110l-340 336l340 326l-116 112l-320 -342l-326 344l-112 -114l336 -330l-334 -310z" />
    <glyph glyph-name="fi" unicode="fi" horiz-adv-x="1390" 
d="M82 -1v86l176 17v888h-201l-1 80l202 38v102q0 92 36.5 172.5t97.5 141t138 94.5t158 34q45 0 69.5 -5t43.5 -12l-1 -163q-13 11 -60 23.5t-118 11.5q-69 1 -113.5 -22.5t-66.5 -77.5t-22 -146v-151h290v-120h-290v-891l228 -14v-86h-566zM828 0v86l176 16v876l-156 34
v90l274 32h4l40 -32v-1002l174 -14v-86h-512zM1073 1320q-55 0 -83 33t-28 82t30.5 90t94.5 41h2q55 0 83 -33t28 -82t-30.5 -90t-94.5 -41h-2z" />
    <glyph glyph-name="fl" unicode="fl" horiz-adv-x="1396" 
d="M82 -1v86l176 17v888h-201l-1 80l202 38v102q0 92 36.5 172.5t97.5 141t138 94.5t158 34q45 0 69.5 -5t43.5 -12l-1 -163q-13 11 -60 23.5t-118 11.5q-69 1 -113.5 -22.5t-66.5 -77.5t-22 -146v-151h290v-120h-290v-891l228 -14v-86h-566zM1010 102v1410l-170 18v74
l290 34h2l38 -26v-1512l190 -14v-86h-526v86z" />
    <glyph glyph-name=".notdef" horiz-adv-x="1744" 
d="M180 0v1382h1384v-1382h-1384zM554 246l316 344l330 -344l110 110l-340 336l340 326l-116 112l-320 -342l-326 344l-112 -114l336 -330l-334 -310z" />
    <glyph glyph-name=".null" 
 />
    <glyph glyph-name="nonmarkingreturn" horiz-adv-x="666" 
 />
    <glyph glyph-name="space" unicode=" " horiz-adv-x="474" 
 />
    <glyph glyph-name="exclam" unicode="!" horiz-adv-x="566" 
d="M368 1798l-42 -1338h-102l-50 1338h194zM160 88q0 56 42 93t90 37q60 0 87 -33t27 -77q0 -58 -40.5 -94t-93.5 -36q-43 0 -77.5 29.5t-34.5 80.5z" />
    <glyph glyph-name="quotedbl" unicode="&#x22;" horiz-adv-x="956" 
d="M445 1644l-207 -628h-83l65 628h225zM818 1644l-207 -628h-83l65 628h225z" />
    <glyph glyph-name="numbersign" unicode="#" horiz-adv-x="1414" 
d="M350 413h-222l18 133h225l70 431h-236l18 131h239l68 432h118l-68 -432h354l70 432h119l-70 -432h233l-18 -131h-233l-71 -431h244l-18 -133h-248l-63 -413h-118l63 413h-355l-65 -413h-118zM846 546l70 431h-356l-72 -431h358z" />
    <glyph glyph-name="dollar" unicode="$" horiz-adv-x="1312" 
d="M574 -252l2 232q-84 6 -160.5 22t-133.5 34.5t-82 31.5l14 336h100l40 -250q30 -25 74 -43t100 -27.5t122 -9.5q102 0 173.5 29.5t109 89t37.5 149.5q0 64 -31 113t-84.5 90t-122.5 78t-144 77q-88 47 -156.5 91.5t-116 95.5t-71.5 114.5t-24 148.5q0 101 53.5 175
t141.5 118.5t193 56.5v220h128v-218q78 -4 140 -18t106.5 -30.5t69.5 -27.5l-10 -316h-96l-46 238q-33 26 -87.5 44t-140.5 16q-78 0 -145.5 -23t-109 -74.5t-41.5 -136.5t45 -143.5t117 -103t153 -89.5q101 -56 182.5 -104t139 -98.5t88.5 -114t31 -151.5q0 -110 -51 -194
t-147.5 -135t-231.5 -61l-2 -232h-126z" />
    <glyph glyph-name="percent" unicode="%" horiz-adv-x="2036" 
d="M632 0l642 1502h130l-640 -1502h-132zM460 648q-106 0 -183.5 55t-120 146t-42.5 199q0 133 53.5 226t140 141.5t186.5 48.5q120 0 196.5 -54t113 -145.5t36.5 -204.5q0 -133 -54 -225t-141 -139.5t-185 -47.5zM472 744q99 0 157.5 83t58.5 225q0 93 -23 164.5t-69 111.5
t-114 40q-99 0 -156.5 -84t-57.5 -228q0 -86 23.5 -157t69 -113t111.5 -42zM1542 48q-107 0 -184.5 55t-119.5 146t-42 199q0 133 53.5 226t140 141.5t186.5 48.5q119 0 195.5 -54.5t113.5 -146t37 -203.5q0 -133 -54.5 -225t-141.5 -139.5t-184 -47.5zM1552 144
q99 0 158.5 83t59.5 225q0 92 -23 163.5t-69 112t-114 40.5q-100 0 -158 -83.5t-58 -226.5q0 -87 24 -158t69.5 -113.5t110.5 -42.5z" />
    <glyph glyph-name="ampersand" unicode="&#x26;" horiz-adv-x="1514" 
d="M1466 810v-98l-154 -20q2 -96 -22 -184.5t-65 -163t-89 -128.5q30 -30 59.5 -54t60.5 -41.5t66 -28t76 -12.5v-74q-13 -6 -36.5 -10t-47.5 -6t-38 -2q-69 0 -122.5 34.5t-121.5 97.5q-91 -75 -199 -105.5t-183 -30.5q-153 0 -268.5 45t-180.5 131t-65 210q0 83 42 155
t116 129t170 94q-69 87 -122.5 187t-53.5 211q0 90 44.5 172t134 134t223.5 52q100 0 170.5 -40t108 -107t37.5 -149q0 -105 -42.5 -184t-120 -145t-183.5 -131q64 -86 126.5 -162t129.5 -149t146 -149q44 57 69 128t33 143t2 133l-136 20v98h436zM446 1158q0 -81 26 -143.5
t63 -111t71 -87.5q91 60 147 111.5t81.5 114t25.5 154.5q0 48 -18 100.5t-58.5 89t-107.5 36.5q-80 0 -131 -38t-75 -98.5t-24 -127.5zM658 84q69 0 151.5 26.5t148.5 75.5q-52 47 -109 107t-114.5 127.5t-112 134.5t-102.5 127q-108 -54 -166 -131t-58 -173
q0 -79 46.5 -146t128 -107.5t187.5 -40.5z" />
    <glyph glyph-name="quotesingle" unicode="'" horiz-adv-x="583" 
d="M445 1644l-207 -628h-83l65 628h225z" />
    <glyph glyph-name="parenleft" unicode="(" horiz-adv-x="846" 
d="M146 668q0 172 39 316.5t100 260t128 200.5t125 137.5t90 69.5l72 -46q-25 -16 -70.5 -62.5t-99.5 -122.5t-103.5 -181.5t-82.5 -239.5t-36 -296q-4 -183 26.5 -333.5t81.5 -268t108 -202.5t106.5 -137.5t77.5 -72.5l-80 -54q-27 16 -83.5 64.5t-124.5 132t-130.5 203
t-103 277t-40.5 355.5z" />
    <glyph glyph-name="parenright" unicode=")" horiz-adv-x="846" 
d="M700 622q0 -172 -39 -316.5t-100 -260t-128 -200.5t-125 -137.5t-90 -69.5l-72 46q25 16 70.5 62.5t99.5 122.5t103.5 181.5t82.5 239.5t36 296q4 183 -26.5 333.5t-81.5 268t-108 202.5t-106.5 137.5t-77.5 72.5l80 54q27 -16 83.5 -64.5t124.5 -132t130.5 -203
t103 -277t40.5 -355.5z" />
    <glyph glyph-name="asterisk" unicode="*" horiz-adv-x="1268" 
d="M560 626l24 310l28 158l-118 -108l-250 -180l-80 136l278 134l152 52l-152 48l-280 130l76 136l252 -178l124 -104l-34 158l-32 308h160l-26 -306l-30 -158l118 106l252 180l78 -134l-276 -132l-152 -54l152 -50l282 -126l-80 -140l-250 178l-124 104l32 -158l34 -308z
" />
    <glyph glyph-name="plus" unicode="+" horiz-adv-x="1338" 
d="M594 171v238l6 172l-172 -6h-206v136h206l172 -10l-6 176v237h150v-237l-8 -176l148 10h232v-136h-232l-148 6l8 -172v-238h-150z" />
    <glyph glyph-name="comma" unicode="," horiz-adv-x="482" 
d="M132 -453l-57 39v17q33 28 64 74.5t51.5 104.5t20.5 118q0 38 -13.5 60.5t-31 39.5t-31 37t-13.5 53q0 54 34.5 93t79.5 39h8q38 0 65.5 -22.5t42.5 -68t15 -113.5q0 -73 -23 -147.5t-59 -140.5t-76 -114.5t-75 -68.5h-2z" />
    <glyph glyph-name="hyphen" unicode="-" horiz-adv-x="1166" 
d="M986 702v-120h-806v120h806z" />
    <glyph glyph-name="period" unicode="." horiz-adv-x="482" 
d="M232 -22q-45 0 -77.5 30.5t-32.5 81.5q0 57 40.5 94.5t89.5 37.5q57 0 82.5 -34t25.5 -78q0 -58 -39 -95t-89 -37z" />
    <glyph glyph-name="slash" unicode="/" horiz-adv-x="762" 
d="M686 1562l-460 -1916h-150l460 1916h150z" />
    <glyph glyph-name="zero" unicode="0" horiz-adv-x="1270" 
d="M626 -18q-139 0 -238 62.5t-160.5 171t-90 249t-27.5 295.5q1 228 73.5 395t195 258t273.5 91q142 0 239.5 -57.5t157 -160.5t86 -240.5t25.5 -297.5q-1 -225 -69 -397.5t-188 -270.5t-277 -98zM632 74q130 0 206 82t108.5 231.5t32.5 352.5q0 144 -18.5 266.5t-58 213.5
t-104.5 141.5t-158 50.5q-97 0 -164 -45t-108.5 -129.5t-60.5 -203t-19 -266.5q0 -139 19.5 -264t61 -222t107 -152.5t156.5 -55.5z" />
    <glyph glyph-name="one" unicode="1" horiz-adv-x="892" 
d="M412 102v1202q-27 -12 -80.5 -28t-112 -30t-101.5 -20l-20 94q68 15 137 43t130.5 64.5t108.5 76.5h2l101 -20v-1382l253 -16v-86h-692v86z" />
    <glyph glyph-name="two" unicode="2" horiz-adv-x="1198" 
d="M64 68q99 61 205 149.5t205 194t178 217t125.5 221t46.5 204.5q0 112 -40 182t-111 103t-163 33q-97 0 -166 -33.5t-114.5 -77.5t-72.5 -78l-84 66q25 40 67 84t101.5 82.5t136.5 62.5t171 24q137 0 236 -53t152 -145t53 -208q0 -109 -44 -223.5t-118.5 -227
t-167.5 -215.5t-192 -189t-190 -147l650 42l66 174l88 -18l-48 -292h-946z" />
    <glyph glyph-name="three" unicode="3" horiz-adv-x="1144" 
d="M304 -26q-37 0 -83.5 4.5t-84.5 13.5v94q32 -9 73.5 -12.5t68.5 -3.5q175 0 297 54.5t185.5 143.5t63.5 194q0 90 -37 153t-116.5 97t-206.5 36q-7 -3 -36.5 -11t-58.5 -15.5t-35 -9.5l-30 96q39 8 79 19.5t77 26.5q83 33 152 72t111 94t43 135q1 87 -32.5 137.5t-95 72
t-144.5 21.5q-78 0 -142.5 -16t-116.5 -42.5t-91 -57.5l-44 72q32 33 94 70.5t148.5 63.5t193.5 26q108 0 199.5 -32t147 -102t55.5 -184q0 -73 -32 -133.5t-86 -108t-120.5 -83t-135.5 -59.5q138 12 237.5 -28t153.5 -115t55 -169q2 -112 -48 -206.5t-143 -163
t-223.5 -106.5t-291.5 -38z" />
    <glyph glyph-name="four" unicode="4" horiz-adv-x="1206" 
d="M723 0v322h-626l-42 80q65 110 125 221t115 222t107 220.5t102 215t99 205.5h48l116 -65l-478 -889l-76 -118l510 28v400l146 12v-406l292 14v-140h-292v-322h-146z" />
    <glyph glyph-name="five" unicode="5" horiz-adv-x="1170" 
d="M177 74q29 -3 61 -4.5t59 -1.5q151 0 273.5 60t194.5 158.5t72 215.5q0 103 -35 171.5t-105 102.5t-176 34q-45 0 -100 -9t-108.5 -24.5t-93.5 -34.5l-54 34l100 710h591l20 38h116l-32 -180h-565l-96 -486q33 19 84.5 36t110.5 27.5t115 10.5q122 0 213.5 -46t142 -135
t50.5 -219q0 -109 -48 -209t-139 -178.5t-220 -124.5t-291 -46q-22 0 -45.5 1t-47.5 4t-47 9v86z" />
    <glyph glyph-name="six" unicode="6" horiz-adv-x="1196" 
d="M604 -26q-121 0 -213.5 48.5t-155 134.5t-94 200.5t-31.5 246.5q0 170 56.5 328t160 289.5t243.5 223t306 127.5l38 -76q-136 -46 -236.5 -116t-171.5 -158t-118 -190t-76 -212q45 56 130.5 107t205.5 51q153 0 254.5 -64t152.5 -173t51 -245q0 -106 -34.5 -200
t-100 -166.5t-158.5 -114t-209 -41.5zM646 874q-104 0 -177 -33t-117.5 -77t-61.5 -78q-1 -13 -2.5 -35t-1.5 -87q0 -70 11 -141.5t35 -135.5t62.5 -114.5t93.5 -79.5t128 -29q105 0 175.5 59.5t106.5 150.5t36 186q0 143 -38 234.5t-103 135.5t-147 44z" />
    <glyph glyph-name="seven" unicode="7" horiz-adv-x="1102" 
d="M560 -2l-200 2q90 218 180 442.5t179 454t177 461.5l-652 -6l-70 -250l-106 18l40 366h904l34 -44z" />
    <glyph glyph-name="eight" unicode="8" horiz-adv-x="1157" 
d="M576 -18q-84 0 -168 21t-154 66t-112 118.5t-42 178.5q0 77 33.5 149.5t103 136.5t177.5 114q-69 42 -126 92t-91.5 116.5t-34.5 159.5q0 122 63.5 204.5t163.5 124t209 41.5q120 0 214 -40t148 -114t54 -176q0 -118 -71 -218.5t-203 -173.5q87 -48 159 -104t115 -128
t43 -168q0 -93 -39.5 -167t-107.5 -126t-154 -79.5t-180 -27.5zM594 70q76 0 144.5 34t111.5 96t43 146q0 93 -57.5 156.5t-148.5 113.5t-191 104q-67 -32 -121 -80.5t-85.5 -109.5t-31.5 -130q0 -102 40.5 -176t115.5 -114t180 -40zM654 828q98 48 158 125.5t60 174.5
q0 93 -35.5 159t-99 100.5t-147.5 34.5q-78 0 -143 -30.5t-104 -87t-39 -134.5q0 -81 50 -140.5t130 -107t170 -94.5z" />
    <glyph glyph-name="nine" unicode="9" horiz-adv-x="1196" 
d="M592 1504q129 0 222.5 -45.5t153.5 -126t89 -185t29 -223.5q0 -205 -63 -378t-171.5 -306.5t-245.5 -219t-286 -114.5l-38 76q126 42 226.5 110.5t175.5 157t125 192.5t75 216q-30 -39 -80.5 -75t-116 -59.5t-139.5 -23.5q-109 0 -194 34.5t-144 98t-89.5 152
t-30.5 197.5q0 103 33.5 196.5t98 167t158 116t212.5 42.5zM564 604q90 0 161.5 31.5t118 75.5t62.5 81q1 12 2 23.5t1.5 23t0.5 23.5q0 82 -8 162t-28.5 150.5t-57.5 124.5t-95 84.5t-141 30.5q-108 0 -178.5 -60.5t-105 -152t-34.5 -183.5q0 -150 39.5 -241t108 -132
t154.5 -41z" />
    <glyph glyph-name="colon" unicode=":" horiz-adv-x="482" 
d="M232 800q-45 0 -77.5 30.5t-32.5 81.5q0 57 40.5 94.5t89.5 37.5q57 0 82.5 -34t25.5 -78q0 -58 -39 -95t-89 -37zM232 -22q-45 0 -77.5 30.5t-32.5 81.5q0 57 40.5 94.5t89.5 37.5q57 0 82.5 -34t25.5 -78q0 -58 -39 -95t-89 -37z" />
    <glyph glyph-name="semicolon" unicode=";" horiz-adv-x="482" 
d="M231 800q-45 0 -77.5 30.5t-32.5 81.5q0 57 40.5 94.5t89.5 37.5q57 0 82.5 -34t25.5 -78q0 -58 -39 -95t-89 -37zM125 -453l-57 39v17q33 28 64 74.5t51.5 104.5t20.5 118q0 38 -13.5 60.5t-31 39.5t-31 37t-13.5 53q0 54 34.5 93t79.5 39h8q38 0 65.5 -22.5t42.5 -68
t15 -113.5q0 -73 -23 -147.5t-59 -140.5t-76 -114.5t-75 -68.5h-2z" />
    <glyph glyph-name="less" unicode="&#x3c;" horiz-adv-x="1338" 
d="M1110 16l-946 494v106l946 496v-150l-800 -398l800 -396v-152z" />
    <glyph glyph-name="equal" unicode="=" horiz-adv-x="1338" 
d="M1116 981v-124h-894v124h894zM1116 427v-124h-894v124h894z" />
    <glyph glyph-name="greater" unicode="&#x3e;" horiz-adv-x="1338" 
d="M228 54v152l800 396l-800 398v150l946 -496v-106z" />
    <glyph glyph-name="question" unicode="?" horiz-adv-x="952" 
d="M340 468q-22 54 -34 105t-17 95.5t-5 79.5q0 62 28.5 103.5t73.5 72t97 59.5t99 65q30 23 67 63t64 92.5t27 112.5q0 94 -46.5 179.5t-142.5 140t-245 54.5q-39 0 -89.5 -6t-82.5 -20l-26 104q21 12 59.5 21.5t82.5 15t82 5.5q154 0 258 -40t166 -108t89 -152.5
t27 -173.5q0 -91 -35.5 -162t-90.5 -127.5t-114 -103.5t-107.5 -90t-70.5 -87q-5 -10 -8.5 -29t-3.5 -33q0 -67 8 -126t12 -110h-122zM402 -22q-43 0 -77.5 29.5t-34.5 80.5q0 56 42 93t90 37q60 0 87 -33t27 -77q0 -58 -40.5 -94t-93.5 -36z" />
    <glyph glyph-name="at" unicode="@" horiz-adv-x="1994" 
d="M136 362q0 208 54.5 385t152.5 317t228 238t282 150t315 52q199 0 355.5 -80.5t246.5 -243t90 -408.5q0 -158 -38.5 -285.5t-101 -223.5t-134.5 -160t-140.5 -96.5t-117.5 -32.5q-51 0 -97 45t-51 129q-3 47 2.5 117t23.5 169q-43 -114 -104.5 -219.5t-134 -173
t-147.5 -67.5q-66 0 -128 47t-102 135t-40 212q0 101 34 213.5t99.5 211t159 161t211.5 62.5q53 0 118 -14.5t116 -43.5q6 18 15 35.5t25 12.5q16 -4 31 -9.5t31 -11.5t34 -13q-10 -47 -25 -125.5t-30.5 -170.5t-28.5 -184t-18 -166q-9 -124 5 -174t39 -50q53 0 118.5 43.5
t125 125.5t98 199t38.5 264q0 176 -52 301t-141.5 203.5t-203.5 115t-239 36.5q-165 0 -317 -68.5t-271 -198.5t-188.5 -314.5t-69.5 -416.5q0 -191 47 -336.5t132 -243.5t200.5 -148t252.5 -50q72 0 152 13t149 34.5t109 48.5l32 -68q-49 -40 -122.5 -72t-162 -51
t-183.5 -19q-178 0 -314.5 60.5t-230 174t-141.5 272.5t-48 355zM702 406q0 -64 14 -130t47 -111t89 -45q49 0 109.5 66t120 174.5t104.5 235.5q14 39 26 78.5t21 77.5t15 74q-20 20 -62.5 36.5t-90.5 26t-83 9.5q-74 0 -132 -42t-97.5 -113t-60 -158.5t-20.5 -178.5z" />
    <glyph glyph-name="A" unicode="A" horiz-adv-x="1408" 
d="M122 104l511 1396h173l478 -1396l130 -18v-86h-488v86l170 18l-103 318h-621l-106 -316l178 -20v-86h-450v86zM958 526l-212 666l-51 175l-56 -181l-233 -660h552z" />
    <glyph glyph-name="B" unicode="B" horiz-adv-x="1301" 
d="M251 104v1274l-168 22v86h250q60 0 112 4t101 8t99 4q134 0 228.5 -23t153 -66.5t85.5 -105.5t27 -141q0 -90 -33.5 -168t-99.5 -132.5t-163 -73.5q127 4 217 -39t137.5 -123t47.5 -186q0 -88 -29.5 -169.5t-98 -146t-185 -102.5t-289.5 -38q-49 0 -92.5 3t-96 6
t-129.5 3h-246v86zM415 826q23 -1 57 -2t70 -0.5t68 0.5h51q101 0 170.5 35t105.5 103t36 166q0 140 -75 211t-275 71q-49 0 -88.5 -3t-69.5 -6t-50 -3v-572zM415 100q26 -8 66 -11.5t83 -4t77 -0.5q155 0 248 40t134.5 114t41.5 176q0 159 -85 232.5t-279 73.5h-66
t-81.5 0.5t-79 0t-59.5 -2.5v-618z" />
    <glyph glyph-name="C" unicode="C" horiz-adv-x="1298" 
d="M754 -22q-163 0 -290 53t-214.5 152t-132.5 239t-45 314q0 167 54 308t151 245t226.5 161t280.5 57q67 0 130.5 -8t119.5 -19t100.5 -21.5t71.5 -15.5l-16 -326h-104l-44 232q-18 16 -58 30t-100.5 23t-139.5 9q-136 0 -245.5 -75.5t-174 -219t-64.5 -348.5
q0 -139 30 -264t91 -222t155 -152.5t222 -55.5q83 0 137 9.5t88.5 26.5t60.5 38l80 190l98 -16l-50 -268q-39 -1 -76 -13t-82 -26.5t-107.5 -25.5t-152.5 -11z" />
    <glyph glyph-name="D" unicode="D" horiz-adv-x="1491" 
d="M661 -16q-36 1 -75 3.5t-80.5 5.5t-84 5t-86.5 2h-256v86l172 18v1274l-160 22v86h242q61 0 119.5 4t116.5 8t118 4q194 0 333 -51t227 -145.5t130 -225.5t42 -292q0 -184 -55.5 -333.5t-157 -256t-240 -162.5t-305.5 -52zM685 82q161 2 287 79t198.5 225.5t72.5 365.5
q0 164 -38 286.5t-114 204t-190 122.5t-266 41q-45 0 -84.5 -2.5t-73.5 -5.5t-62 -4v-1296q48 -9 92.5 -12.5t88 -4t89.5 0.5z" />
    <glyph glyph-name="E" unicode="E" horiz-adv-x="1246" 
d="M251 104v1274l-168 22v86h1002l28 -294h-96l-62 192l-540 10v-582l368 6l26 166h100v-442h-100l-26 170l-368 6v-616l609 16l110 257l96 -30l-67 -345h-1084v86z" />
    <glyph glyph-name="F" unicode="F" horiz-adv-x="1217" 
d="M255 104v1274l-176 22v86h1048l20 -328h-109l-56 226l-563 10v-592l400 6l34 162h92v-442h-92l-34 170l-400 8v-602l314 -18v-86h-642v86z" />
    <glyph glyph-name="G" unicode="G" horiz-adv-x="1441" 
d="M751 -22q-166 0 -296 57t-219.5 158.5t-136 236t-46.5 288.5q0 188 52.5 334t149.5 246.5t233.5 152t304.5 51.5q77 0 152 -8.5t140.5 -20.5t115 -21.5t74.5 -11.5l-16 -332h-104l-44 230q-15 12 -58.5 28t-113.5 28t-164 12q-170 0 -289.5 -71t-182 -212.5t-62.5 -352.5
q0 -132 28.5 -257t90.5 -224.5t161.5 -158.5t241.5 -59q71 0 134 12t119 33.5t107 49.5v456l-278 20v106h568v-106l-122 -20v-542q-41 -1 -83 -12t-89 -26t-101.5 -29.5t-120.5 -24.5t-146 -10z" />
    <glyph glyph-name="H" unicode="H" horiz-adv-x="1582" 
d="M245 104v1274l-161 22v86h499v-86l-174 -22v-562h764v562l-171 22v86h496v-86l-161 -22v-1274l166 -18v-86h-503v86l173 18v606h-764v-606l176 -18v-86h-506v86z" />
    <glyph glyph-name="I" unicode="I" horiz-adv-x="711" 
d="M273 104v1274l-194 22v86h553v-86l-194 -22v-1274l194 -20v-84h-553v86z" />
    <glyph glyph-name="J" unicode="J" horiz-adv-x="711" 
d="M-22 -274q59 16 112.5 51t94 86.5t61.5 118.5q18 57 26.5 121t11 159t2.5 244v870l-202 24v86h558v-86l-192 -24v-826q0 -166 -0.5 -290.5t-19.5 -217.5q-23 -115 -87 -195.5t-149.5 -128.5t-171.5 -64z" />
    <glyph glyph-name="K" unicode="K" horiz-adv-x="1401" 
d="M79 0v86l172 18v1274l-168 22v86h504v-86l-172 -22v-727l626 727l-170 22v86h464v-86l-146 -22l-461 -514q51 -43 107 -114.5t114 -156t112.5 -169.5t102.5 -156t84.5 -115t56.5 -47l94 -22v-84h-240q-26 0 -62 42t-79 111t-91 153t-98 169t-99.5 159t-96.5 121
l-218 -247v-404l188 -20v-84h-524z" />
    <glyph glyph-name="L" unicode="L" horiz-adv-x="1225" 
d="M79 0v86l172 18v1274l-168 22v86h532v-86l-200 -22v-1274l560 16l112 312l96 -16l-74 -416h-1030z" />
    <glyph glyph-name="M" unicode="M" horiz-adv-x="1946" 
d="M186 104l160 1274l-234 22v86h482l302 -924l74 -268l68 268l301 924h478v-86l-230 -22l161 -1272l182 -20v-86h-538v86l186 18l-99 912l-40 400l-88 -276l-357 -1068h-84l-334 956l-118 388l-43 -400l-95 -912l196 -18v-86h-500v86z" />
    <glyph glyph-name="N" unicode="N" horiz-adv-x="1526" 
d="M69 0v86l160 20v1272q-26 4 -53 7.5t-53.5 7.5t-53.5 7v86h322l708 -1026l114 -200v1118l-176 22v86h456v-86l-164 -22v-1378h-104l-716 1030l-164 266v-1192l182 -18v-86h-458z" />
    <glyph glyph-name="O" unicode="O" horiz-adv-x="1432" 
d="M702 -22q-206 -3 -347 93.5t-213 268t-72 392.5q0 177 51 319t142.5 243t212.5 154.5t260 53.5q202 0 341.5 -92.5t212 -260.5t72.5 -393q0 -175 -50.5 -317.5t-140.5 -244.5t-210 -157.5t-259 -58.5zM712 72q138 0 242.5 76.5t163 228.5t58.5 379q0 192 -53 339
t-155.5 230t-249.5 83q-138 0 -242 -74.5t-162 -224.5t-58 -377q0 -191 53 -340t154.5 -234.5t248.5 -85.5z" />
    <glyph glyph-name="P" unicode="P" horiz-adv-x="1255" 
d="M251 104v1274l-160 22v86h242q66 0 112 3.5t98.5 7t139.5 3.5q196 0 308.5 -50t160 -144t47.5 -226q0 -162 -76.5 -276.5t-206.5 -175t-289 -60.5q-39 0 -85 1t-82 3t-45 4v-470l278 -20v-86h-614v86zM415 674q29 -4 85 -6t131 -2q101 0 190.5 37.5t145.5 127.5t56 249
q0 119 -42.5 190t-129 102.5t-218.5 31.5q-48 0 -87 -3t-71 -6t-60 -3v-718z" />
    <glyph glyph-name="Q" unicode="Q" horiz-adv-x="1432" 
d="M1372 -364q-85 0 -148 33t-114 83.5t-99 103.5t-103 94t-126 54l120 38q82 -6 141.5 -34.5t107 -67.5t94 -76.5t100 -62.5t125.5 -25q17 0 26.5 1t19.5 1l20 -82q-33 -30 -79 -45t-85 -15zM702 -22q-206 -3 -347 93.5t-213 268t-72 392.5q0 177 51 319t142.5 243
t212.5 154.5t260 53.5q202 0 341.5 -92.5t212 -260.5t72.5 -393q0 -175 -50.5 -317.5t-140.5 -244.5t-210 -157.5t-259 -58.5zM712 72q138 0 242.5 76.5t163 228.5t58.5 379q0 192 -53 339t-155.5 230t-249.5 83q-138 0 -242 -74.5t-162 -224.5t-58 -377q0 -191 53 -340
t154.5 -234.5t248.5 -85.5z" />
    <glyph glyph-name="R" unicode="R" horiz-adv-x="1365" 
d="M79 0v86l172 18v1276l-160 24v82h244q72 0 131 4t106 8t83 4q188 0 299 -46.5t159 -134t48 -211.5q0 -94 -35.5 -180t-102.5 -150.5t-162 -93.5q38 -23 75.5 -72.5t74.5 -113.5t71.5 -130.5t66.5 -124.5t61 -95.5t53 -43.5l84 -22v-84h-218q-25 0 -56 42.5t-66.5 111.5
t-74 148.5t-78.5 154t-79.5 130t-77.5 73.5h-64h-86t-81.5 0.5t-50.5 1.5v-558l206 -18v-86h-542zM685 758q89 0 157 37t106.5 112t38.5 189q0 89 -32.5 158.5t-113.5 109.5t-226 40q-28 0 -61 -2t-68.5 -5t-70.5 -5v-632q35 -2 89.5 -2.5t105.5 0t75 0.5z" />
    <glyph glyph-name="S" unicode="S" horiz-adv-x="1176" 
d="M572 -22q-108 0 -194.5 22t-147 44.5t-91.5 25.5l16 356h104l30 -262q23 -22 67.5 -42t103 -33t122.5 -13q120 0 193.5 34t107 96.5t33.5 147.5q0 88 -47.5 147t-128.5 102.5t-182 84.5q-63 26 -133 61.5t-131.5 86.5t-100 122t-38.5 168q0 112 58.5 196.5t164.5 132
t249 47.5q67 0 126 -9.5t108 -22.5t85.5 -24.5t58.5 -15.5l-12 -328h-100l-36 248q-14 12 -49 25.5t-84.5 23t-106.5 9.5q-102 0 -169.5 -26.5t-101 -80.5t-33.5 -135q0 -91 43.5 -146.5t122.5 -96t183 -89.5q74 -34 149 -73t138.5 -89t102 -117t38.5 -157q0 -77 -32 -152
t-96 -135.5t-161.5 -96.5t-228.5 -36z" />
    <glyph glyph-name="T" unicode="T" horiz-adv-x="1362" 
d="M595 104v1292l-374 -12l-67 -406h-110l37 508h1203l34 -508h-110l-64 406l-377 12v-1292l277 -18v-86h-720v86z" />
    <glyph glyph-name="U" unicode="U" horiz-adv-x="1476" 
d="M758 -16q-193 0 -315.5 71t-180.5 215.5t-58 365.5v742l-150 22v86h490v-86l-172 -22v-760q0 -155 29.5 -258.5t83.5 -164.5t127.5 -87t161.5 -26q128 0 214.5 59t130 175t43.5 286v774l-166 24v86h444v-86l-152 -22v-768q0 -163 -39.5 -281t-111.5 -194.5t-168.5 -113.5
t-210.5 -37z" />
    <glyph glyph-name="V" unicode="V" horiz-adv-x="1301" 
d="M-39 1400v86h486v-86l-184 -22l329 -948l78 -272l87 276l326 944l-160 22v86h422v-86l-128 -22l-504 -1378h-130l-498 1378z" />
    <glyph glyph-name="W" unicode="W" horiz-adv-x="1968" 
d="M-40 1400v86h504v-86l-196 -22l280 -950l66 -306l78 306l240 782l-54 168l-148 22v86h520v-86l-198 -22l282 -950l78 -330l66 330l266 950l-210 22v86h474v-86l-134 -22l-410 -1378h-154l-324 1036l-318 -1036h-146l-422 1376z" />
    <glyph glyph-name="X" unicode="X" horiz-adv-x="1424" 
d="M188 104l438 648l-419 624l-157 24v86h560v-86l-204 -24l336 -538l332 540l-180 22v86h478v-86l-158 -24l-418 -604l451 -668l163 -18v-86h-558v86l197 18l-365 580l-350 -580l206 -18v-86h-526v86z" />
    <glyph glyph-name="Y" unicode="Y" horiz-adv-x="1280" 
d="M556 104v468l-450 804l-124 24v86h478v-86l-168 -22l290 -566l72 -160l78 160l302 566l-168 22v86h434v-86l-132 -22l-444 -804v-468l228 -20v-86h-618v86z" />
    <glyph glyph-name="Z" unicode="Z" horiz-adv-x="1286" 
d="M112 0l-48 78l802 1172l114 150l-640 -20l-98 -260l-92 10l42 362h942l44 -74l-792 -1164l-130 -160l748 34l100 316l96 -22l-48 -422h-1040z" />
    <glyph glyph-name="bracketleft" unicode="[" horiz-adv-x="852" 
d="M362 -274q-62 0 -98 13.5t-51 53.5t-15 119v1510q0 79 15 119t51 53.5t98 13.5q84 0 146 -11t120 -23v-74h-286v-1664h286v-74q-63 -15 -124.5 -25.5t-141.5 -10.5z" />
    <glyph glyph-name="backslash" unicode="\" horiz-adv-x="862" 
d="M780 -354h-150l-560 1916h150z" />
    <glyph glyph-name="bracketright" unicode="]" horiz-adv-x="852" 
d="M490 -274q-79 0 -141 10.5t-125 25.5v74h286v1664h-286v74q59 12 120.5 23t145.5 11q62 0 98 -13.5t51 -53.5t15 -119v-1510q0 -79 -15 -119t-51 -53.5t-98 -13.5z" />
    <glyph glyph-name="asciicircum" unicode="^" horiz-adv-x="1330" 
d="M746 1496l404 -1230h-150l-336 1054l-334 -1054h-150l402 1230h164z" />
    <glyph glyph-name="underscore" unicode="_" horiz-adv-x="1000" 
d="M1010 -89l-1 -68h-1019l2 68h1018z" />
    <glyph glyph-name="grave" unicode="`" horiz-adv-x="806" 
d="M560 1298q-36 17 -91.5 57.5t-115 92t-106.5 100t-67 80.5l136 110l310 -386l-64 -54h-2z" />
    <glyph glyph-name="a" unicode="a" horiz-adv-x="1042" 
d="M376 -22q-89 0 -165 33t-122.5 102.5t-46.5 178.5q0 105 57.5 176t154 113.5t215.5 62.5t243 22v84q0 99 -21 154t-73 77.5t-146 22.5q-117 0 -205.5 -39.5t-136.5 -66.5l-44 88q18 17 83 52t156 64.5t187 29.5q133 0 212 -38t113.5 -123t34.5 -225v-657h124v-74
q-22 -6 -54 -13t-67 -12t-65 -5q-43 0 -63.5 13t-20.5 71v71q-25 -22 -75.5 -60.5t-120.5 -70t-154 -31.5zM436 96q60 0 138 35.5t138 86.5v354q-166 -1 -275 -34.5t-163 -91.5t-54 -134q0 -80 28.5 -127.5t77.5 -68t110 -20.5z" />
    <glyph glyph-name="b" unicode="b" horiz-adv-x="1174" 
d="M-10 1530v74l292 34h4l38 -28v-608q35 33 85 65t114.5 52.5t142.5 20.5q112 0 212 -56t163 -176t63 -312q0 -128 -39.5 -240t-114 -197t-180 -133t-236.5 -48q-91 0 -171 13.5t-134 31.5t-67 31v1458zM600 1018q-63 0 -117 -21.5t-95 -51.5t-64 -55v-740q15 -34 82 -52
t142 -18q115 0 199.5 57t131.5 166t49 265q3 158 -42.5 257.5t-121 146t-164.5 46.5z" />
    <glyph glyph-name="c" unicode="c" horiz-adv-x="1004" 
d="M567 -22q-162 0 -272 75t-166.5 203t-57.5 286q-1 119 33 226.5t103 191t174 132t246 48.5q58 0 112.5 -10.5t98 -24.5t69.5 -25l-8 -286h-100l-42 192q-3 16 -29.5 29.5t-64.5 22t-78 8.5q-103 0 -179.5 -53.5t-119 -152.5t-43.5 -236q-1 -130 26.5 -226.5t76.5 -159
t115 -93.5t142 -31q61 0 117 14.5t101.5 35.5t75.5 42l32 -66q-37 -37 -95.5 -69.5t-128 -52.5t-138.5 -20z" />
    <glyph glyph-name="d" unicode="d" horiz-adv-x="1185" 
d="M508 -22q-85 0 -164 33t-140.5 101t-97.5 171.5t-36 244.5q0 171 69 309.5t197 220.5t304 82q59 0 113 -6.5t99 -17.5v396l-208 20v72l328 34h4l38 -28v-1520h122v-78q-39 -9 -87 -19.5t-105 -10.5q-40 0 -62 14t-22 72v70q-35 -39 -86.5 -76t-118 -60.5t-147.5 -23.5z
M574 104q63 0 118 21t96.5 51.5t63.5 59.5v736q-16 27 -82.5 47.5t-143.5 20.5q-107 0 -192 -50t-135.5 -157t-52.5 -277q-2 -162 43 -261.5t120.5 -145t164.5 -45.5z" />
    <glyph glyph-name="e" unicode="e" horiz-adv-x="1018" 
d="M541 -22q-158 0 -265.5 74t-162 205.5t-54.5 302.5q0 129 38.5 235.5t107.5 183.5t162.5 119t203.5 42q177 0 277 -101t107 -295q0 -57 -2 -100t-10 -76h-712q0 -101 23 -188t68.5 -151.5t113.5 -100.5t157 -36q86 0 174 31t134 71l32 -74q-38 -39 -100.5 -71
t-138.5 -51.5t-153 -19.5zM233 662h542q3 16 4.5 43t1.5 45q0 123 -58 205.5t-192 82.5q-60 0 -111.5 -20t-91 -64t-64 -116t-31.5 -176z" />
    <glyph glyph-name="f" unicode="f" horiz-adv-x="730" 
d="M82 -1v86l176 17v888h-201l-1 80l202 38v102q0 92 36.5 172.5t97.5 141t138 94.5t158 34q45 0 69.5 -5t43.5 -12l-1 -163q-13 11 -60 23.5t-118 11.5q-69 1 -113.5 -22.5t-66.5 -77.5t-22 -146v-151h290v-120h-290v-891l228 -14v-86h-566z" />
    <glyph glyph-name="g" unicode="g" horiz-adv-x="1186" 
d="M548 -540q-130 0 -220.5 22t-146 62t-80.5 95t-25 121q0 65 26 119.5t68.5 95.5t91.5 65q-45 24 -69.5 65t-24.5 101q0 45 22.5 88t58.5 79t78 58q-91 44 -145.5 124.5t-54.5 196.5q0 122 65.5 209t168 133t212.5 46q87 0 164 -20t134 -62q21 20 84 51t144 31h57v-148
h-219q18 -25 31 -56.5t20 -68t7 -75.5q0 -124 -60.5 -215.5t-161.5 -141.5t-222 -50q-40 0 -77.5 4.5t-72.5 13.5q-36 -28 -61.5 -65t-25.5 -75q0 -78 50 -100.5t170 -22.5h236q128 0 208.5 -34t118 -95.5t37.5 -144.5q0 -82 -45 -155t-125 -129.5t-186.5 -89t-229.5 -32.5z
M558 -438q106 0 203 31t159 88.5t62 138.5q0 56 -18 96.5t-72 62t-162 21.5h-248q-40 0 -77 2.5t-69 9.5q-48 -39 -73 -94t-25 -126q0 -72 29 -123.5t98.5 -79t192.5 -27.5zM571 483q131 0 192.5 72.5t61.5 214.5q0 93 -30.5 153t-89.5 89.5t-144 29.5q-73 0 -133 -25
t-95.5 -83.5t-35.5 -159.5q0 -82 28 -148t88.5 -104.5t157.5 -38.5z" />
    <glyph glyph-name="h" unicode="h" horiz-adv-x="1319" 
d="M229 100v1412l-178 18v74l296 34h4l40 -26v-476l-6 -166q37 35 104.5 73.5t148 65.5t155.5 27q127 0 196.5 -48.5t96.5 -152.5t27 -269v-565l150 -15v-86h-446v86l134 15v567q0 117 -15.5 193.5t-64.5 113.5t-148 37q-56 0 -117 -20t-117.5 -50.5t-97.5 -61.5v-778
l146 -16v-86h-442v86z" />
    <glyph glyph-name="i" unicode="i" horiz-adv-x="624" 
d="M62 0v86l176 16v876l-156 34v90l274 32h4l40 -32v-1002l174 -14v-86h-512zM307 1320q-55 0 -83 33t-28 82t30.5 90t94.5 41h2q55 0 83 -33t28 -82t-30.5 -90t-94.5 -41h-2z" />
    <glyph glyph-name="j" unicode="j" horiz-adv-x="624" 
d="M100 -486q-10 -1 -35 -0.5t-49 2.5t-30 6l-8 82q15 -1 46.5 3.5t67.5 16.5q61 19 95 79t47.5 149.5t13.5 197.5l-2 920l-160 36v96l278 32h4l38 -32v-1090q0 -124 -20.5 -215t-60.5 -151.5t-96.5 -92.5t-128.5 -39zM304 1320q-55 0 -83 33t-28 82t30.5 90t94.5 41h2
q55 0 83 -33t28 -82t-30.5 -90t-94.5 -41h-2z" />
    <glyph glyph-name="k" unicode="k" horiz-adv-x="1249" 
d="M83 0v86l132 16v1410l-164 18v74l284 34h2l38 -26v-1010l-4 -126l486 526l-156 28v80h472v-80l-154 -28l-318 -336l398 -566l132 -14v-86h-458v86l138 16l-314 474l-226 -236l4 -84v-154l156 -16v-86h-448z" />
    <glyph glyph-name="l" unicode="l" horiz-adv-x="599" 
d="M213 102v1410l-170 18v74l290 34h2l38 -26v-1512l190 -14v-86h-526v86z" />
    <glyph glyph-name="m" unicode="m" horiz-adv-x="1970" 
d="M88 0v86l128 16v876l-154 34v90l254 32l44 -32v-88l-2 -50q44 38 113.5 78t148.5 67t150 27q106 0 170.5 -35.5t98.5 -112.5q36 30 104 64.5t147.5 59t151.5 24.5q95 0 157.5 -27.5t98 -84t50 -144.5t14.5 -210v-568l152 -16v-86h-448v86l136 16v562q0 115 -17.5 193
t-69 117.5t-153.5 39.5q-53 0 -108.5 -16.5t-105 -41.5t-83.5 -50q7 -32 11.5 -69.5t6.5 -80t2 -90.5v-564l152 -16v-86h-458v86l144 16v566q0 116 -14.5 192.5t-60.5 114t-142 37.5q-84 0 -175 -42t-153 -90v-778l142 -16v-86h-432z" />
    <glyph glyph-name="n" unicode="n" horiz-adv-x="1306" 
d="M216 102v876l-154 34v90l254 32h6l38 -32v-88l-2 -50q44 38 114.5 78t151.5 67t156 27q130 0 199 -50.5t95 -154.5t26 -265v-566l150 -14v-86h-446v86l134 14v568q0 116 -16 192.5t-64.5 114t-145.5 37.5q-57 0 -118.5 -20t-118 -51t-97.5 -63v-776l146 -16v-86h-442v86z
" />
    <glyph glyph-name="o" unicode="o" horiz-adv-x="1150" 
d="M71 562q0 137 43.5 244t117.5 181.5t165.5 113.5t187.5 39q179 0 287.5 -80.5t157.5 -213.5t49 -290q0 -136 -43.5 -243.5t-117.5 -182t-165.5 -113.5t-187.5 -39q-134 0 -228.5 46.5t-153 127.5t-85.5 186.5t-27 223.5zM575 82q101 0 173 52t110.5 155t38.5 255
q0 99 -17.5 188t-55 157.5t-98.5 107.5t-149 39q-102 0 -174.5 -52t-111 -154.5t-38.5 -255.5q0 -100 18 -189t56 -157.5t99.5 -107t148.5 -38.5z" />
    <glyph glyph-name="p" unicode="p" horiz-adv-x="1196" 
d="M32 -484v88l154 20v1354l-156 34v90l256 32h4l36 -32v-122q35 36 87.5 73t121.5 62t153 25q111 0 211.5 -56t163.5 -176t63 -312q0 -129 -40 -241t-114 -197t-178 -132.5t-232 -47.5q-54 0 -116.5 8.5t-103.5 23.5l4 -170v-216l222 -20v-88h-536zM570 72q107 0 193.5 53
t137.5 162.5t51 280.5q0 119 -26 204.5t-72 140t-105.5 80t-126.5 25.5q-63 0 -117 -18.5t-95 -45.5t-64 -52v-762q15 -24 78.5 -46t145.5 -22z" />
    <glyph glyph-name="q" unicode="q" horiz-adv-x="1158" 
d="M626 -484v82l224 20v336l6 172q-36 -35 -86.5 -69t-115.5 -56.5t-144 -22.5q-112 0 -212.5 59.5t-164 182.5t-63.5 314q0 171 69 308.5t197 217.5t304 80q68 0 132.5 -10t115.5 -24l80 28h10l34 -32v-1484l140 -20v-82h-526zM576 94q65 0 119 20.5t93.5 48.5t61.5 51v768
q-12 24 -79 47t-147 23q-106 0 -191 -51.5t-135 -160t-52 -278.5q-2 -159 43 -262.5t120.5 -154.5t166.5 -51z" />
    <glyph glyph-name="r" unicode="r" horiz-adv-x="881" 
d="M75 0v84l160 12v882l-154 34v90l254 32h4l38 -32v-32l-4 -178h4q9 10 36.5 46.5t75 79.5t115.5 74.5t157 31.5q29 0 44.5 -2.5t25.5 -5.5v-168q-6 5 -33.5 11.5t-68.5 6.5q-93 0 -155.5 -24.5t-104 -56.5t-72.5 -55v-732l266 -16v-82h-588z" />
    <glyph glyph-name="s" unicode="s" horiz-adv-x="946" 
d="M446 -22q-62 0 -133.5 14t-133 33.5t-93.5 36.5v252h108l30 -156q14 -21 50.5 -41t86.5 -32.5t105 -12.5q89 0 142.5 22.5t77.5 63t24 94.5q0 59 -33.5 100.5t-100 75.5t-166.5 70q-104 38 -173 85t-103 111.5t-34 155.5q0 88 53.5 151.5t142 98t192.5 34.5
q79 0 140.5 -12t104 -27t63.5 -23v-238h-98l-36 146q-10 18 -39.5 32t-69.5 22t-81 8q-67 1 -117 -19t-77.5 -55.5t-27.5 -83.5q0 -76 38.5 -120t99 -71.5t126.5 -54.5t128 -56t111 -67t78 -91t29 -128q0 -100 -52 -171t-145.5 -109t-216.5 -38z" />
    <glyph glyph-name="t" unicode="t" horiz-adv-x="765" 
d="M406 -22q-99 0 -156.5 46t-57.5 178v788h-152v80q18 4 42 9.5t45 11.5t29 11q11 7 18.5 15t14 19.5t12.5 28.5q9 24 21.5 72t24 93.5t15.5 63.5h90v-284h356v-120h-356v-646q0 -111 8.5 -161t35.5 -63.5t82 -13.5q62 0 133.5 17t104.5 33l26 -76q-29 -22 -83.5 -45.5
t-121 -40t-131.5 -16.5z" />
    <glyph glyph-name="u" unicode="u" horiz-adv-x="1243" 
d="M983 -18q-48 0 -74 16.5t-26 67.5v78q-40 -36 -98.5 -74.5t-127 -65t-140.5 -26.5q-184 0 -261.5 103t-77.5 331v588l-118 34v74l242 26h2l36 -24v-674q0 -119 18 -193t67 -108.5t142 -34.5q63 0 119 21t102 50.5t77 56.5v772l-152 34v74l266 26h2l46 -24v-1022h124
l-2 -76q-33 -9 -73 -19.5t-93 -10.5z" />
    <glyph glyph-name="v" unicode="v" horiz-adv-x="1115" 
d="M496 -16l-404 1018l-94 26v82h424v-82l-148 -26l214 -594l98 -284l84 274l214 604l-140 26v82h382v-82l-102 -26l-394 -1018h-134z" />
    <glyph glyph-name="w" unicode="w" horiz-adv-x="1666" 
d="M-14 1028v82h437v-82l-160 -24l177 -622l63 -278l66 280l210 726h178l181 -726l58 -282l78 280l176 620l-154 26v82h392v-82l-110 -26l-321 -1018h-165l-199 744l-52 243l-54 -243l-221 -744h-158l-313 1020z" />
    <glyph glyph-name="x" unicode="x" horiz-adv-x="1157" 
d="M141 102l354 456l-348 446l-101 24v82h445v-82l-146 -24l198 -280l60 -88l54 86l210 282l-154 24v82h404v-82l-114 -24l-336 -428l360 -476l110 -16v-84h-464v84l142 18l-200 294l-62 90l-56 -88l-212 -296l176 -18v-84h-441v84z" />
    <glyph glyph-name="y" unicode="y" horiz-adv-x="1150" 
d="M256 -500q-27 0 -51.5 4t-36.5 10v151q12 -6 38.5 -9t53.5 -3q36 0 74 11.5t77.5 46.5t80.5 104.5t82 184.5h-88l-382 1002l-94 26v82h442v-82l-162 -24l210 -612l104 -326l100 328l188 610l-140 24v82h384v-82l-104 -24q-71 -219 -124.5 -381t-91.5 -276.5t-63.5 -190
t-42 -120.5t-26.5 -68q-62 -153 -117.5 -257.5t-127.5 -157.5t-183 -53z" />
    <glyph glyph-name="z" unicode="z" horiz-adv-x="1079" 
d="M817 1006l-546 -14l-28 -188h-110v306h834l34 -74l-634 -820l-125 -114l590 18l88 218l102 -12l-48 -326h-876l-36 76l630 814z" />
    <glyph glyph-name="braceleft" unicode="{" horiz-adv-x="1002" 
d="M640 -272q-175 0 -257.5 64t-82.5 184q0 71 13.5 132.5t30.5 118t30.5 111.5t13.5 112q0 48 -22 84t-83.5 55.5t-178.5 18.5v140q117 -1 178.5 14t83.5 46.5t22 79.5q0 57 -13.5 112t-30.5 111.5t-30.5 117.5t-13.5 131q0 122 82.5 185t257.5 63q53 0 100 -8.5t102 -23.5
v-80q-7 2 -37.5 3.5t-61 2t-37.5 0.5q-62 0 -118.5 -14t-92 -51t-35.5 -105q0 -65 16 -143t32 -158.5t16 -152.5q0 -64 -39.5 -106t-100.5 -66t-126 -34q65 -9 126 -35t100.5 -70.5t39.5 -108.5q0 -72 -16 -152t-32 -157.5t-16 -142.5q0 -70 35 -107t91.5 -51t119.5 -14
q9 0 39.5 1t60 3t36.5 4v-80q-55 -15 -102 -24.5t-100 -9.5z" />
    <glyph glyph-name="bar" unicode="|" horiz-adv-x="844" 
d="M494 1738v-1920h-144v1920h144z" />
    <glyph glyph-name="braceright" unicode="}" horiz-adv-x="1002" 
d="M362 -272q-52 0 -99 9.5t-103 24.5v80q7 -2 36.5 -4t60 -3t39.5 -1q63 0 119.5 14t91.5 51t35 107q0 65 -16 142.5t-32 157.5t-16 152q0 64 39.5 108.5t100.5 70.5t126 35q-65 10 -126 34t-100.5 66t-39.5 106q0 72 16 152.5t32 158.5t16 143q0 68 -35.5 105t-92 51
t-118.5 14q-7 0 -37.5 -0.5t-61 -2t-37.5 -3.5v80q56 15 103 23.5t99 8.5q176 0 258 -63t82 -185q0 -70 -13.5 -131t-30.5 -117.5t-30.5 -111.5t-13.5 -112q0 -48 22.5 -79.5t83.5 -46.5t178 -14v-140q-117 1 -178 -18.5t-83.5 -55.5t-22.5 -84q0 -57 13.5 -112t30.5 -111.5
t30.5 -118t13.5 -132.5q0 -120 -82 -184t-258 -64z" />
    <glyph glyph-name="asciitilde" unicode="~" horiz-adv-x="1151" 
d="M180 510q13 44 47 84.5t83.5 69t106.5 36.5q62 9 105.5 -7.5t79 -41t71.5 -42t82 -11.5q55 8 81 37.5t50 78.5l85 -39q-28 -63 -72.5 -122t-127.5 -72q-62 -8 -108.5 8t-85.5 40.5t-78 41.5t-87 10q-55 -7 -97.5 -44t-59.5 -86z" />
    <glyph glyph-name="uni00A0" unicode="&#xa0;" horiz-adv-x="474" 
 />
    <glyph glyph-name="exclamdown" unicode="&#xa1;" horiz-adv-x="566" 
d="M198 -324l42 1338h102l50 -1338h-194zM294 1496q44 0 78 -29.5t34 -80.5q0 -55 -42 -92.5t-90 -37.5q-60 0 -87 33.5t-27 76.5q0 59 41 94.5t93 35.5z" />
    <glyph glyph-name="cent" unicode="&#xa2;" horiz-adv-x="1134" 
d="M148 542q-1 149 53.5 280t166 217t280.5 99l16 226h114l-18 -226q48 -5 91.5 -15.5t78 -22t56.5 -20.5l-10 -286h-100l-42 192q-5 24 -30.5 37t-63 18t-78.5 5q-102 0 -178 -53.5t-118.5 -152.5t-43.5 -236q-1 -130 26.5 -226.5t76 -159t114 -93.5t141.5 -31
q61 0 117.5 14.5t102 35.5t74.5 42l32 -66q-34 -35 -87 -65.5t-116.5 -51t-128.5 -25.5l-17 -230h-112l17 236q-135 19 -227 97t-139 197.5t-48 263.5z" />
    <glyph glyph-name="sterling" unicode="&#xa3;" horiz-adv-x="1456" 
d="M956 -14q-87 0 -161 19t-141.5 44t-134.5 44.5t-141 20.5q-37 -45 -83.5 -79.5t-100.5 -34.5q-25 0 -56.5 15.5t-31.5 58.5q0 35 31 68t82.5 53t114.5 17q16 25 29.5 78.5t22 116.5t8.5 117v240h-204v96h204v138q0 153 65 266t173 175.5t236 62.5q116 0 203 -33.5
t141 -80.5l-90 -132q-10 18 -52 51t-109 60t-151 27q-43 0 -86.5 -14t-79.5 -52.5t-58 -108.5t-22 -183v-176h316v-96h-316v-220q0 -84 -17 -148.5t-44.5 -114t-58.5 -87.5q88 -6 173.5 -25t170 -36t170.5 -17q122 0 166 47t44 149q0 57 -13 111t-33 73h176q14 -18 25 -57
t11 -101q0 -91 -49 -171.5t-134.5 -130.5t-194.5 -50z" />
    <glyph glyph-name="currency" unicode="&#xa4;" horiz-adv-x="1450" 
d="M382 490q-37 53 -57.5 118t-20.5 138q0 74 21.5 142.5t60.5 123.5l-206 208l100 102l208 -208q50 35 109 54.5t125 19.5t127.5 -18.5t112.5 -51.5l208 206l100 -102l-202 -202q39 -52 61.5 -117t22.5 -139q0 -75 -24 -143.5t-66 -124.5l204 -204l-100 -102l-206 206
q-51 -34 -111.5 -54t-126.5 -20t-125.5 18.5t-110.5 49.5l-206 -204l-100 102zM722 444q99 0 164 42t96.5 112t31.5 154t-40 155.5t-107.5 115t-148.5 43.5q-94 0 -157.5 -45t-96 -117.5t-32.5 -155.5q0 -85 39 -154t104.5 -109.5t146.5 -40.5z" />
    <glyph glyph-name="yen" unicode="&#xa5;" horiz-adv-x="1504" 
d="M628 830l-384 558l-128 24v74h478v-74l-148 -20l274 -434l64 -126l76 130l242 430l-150 20v74h436v-74l-140 -24l-366 -558h406v-96h-456v-278h456v-96h-456v-262l234 -22v-76h-606v76l232 22v262h-456v96h456v278h-456v96h392z" />
    <glyph glyph-name="brokenbar" unicode="&#xa6;" horiz-adv-x="844" 
d="M494 1738v-810h-144v810h144zM494 626v-808h-144v808h144z" />
    <glyph glyph-name="section" unicode="&#xa7;" horiz-adv-x="1332" 
d="M312 240l30 -252q36 -33 120.5 -59.5t183.5 -26.5q174 0 254 57t80 139q0 59 -32 102t-86.5 77t-124 62.5t-145.5 56.5q-70 26 -141.5 62.5t-131.5 88t-96.5 121.5t-36.5 164q0 87 37.5 147.5t104.5 108.5q-48 47 -78 104t-30 130q0 96 57.5 168.5t163.5 113t251 40.5
q92 0 166.5 -16t128 -33.5t83.5 -22.5l-12 -318h-98l-46 238q-13 14 -74.5 32t-153.5 18q-150 0 -231 -47t-81 -139q0 -66 28.5 -111.5t78 -78.5t114 -60t135.5 -56q62 -25 135 -61t138.5 -85.5t108 -117.5t42.5 -158q0 -81 -38 -147.5t-104 -122.5q54 -43 89 -96.5
t35 -121.5q0 -83 -51.5 -160.5t-162 -127.5t-286.5 -50q-113 0 -203 22t-153 44.5t-94 25.5l22 346h104zM682 528q26 -10 54.5 -22t59 -25.5t61.5 -28.5t61 -32q36 35 56 77.5t20 96.5q0 81 -45.5 138.5t-125.5 101t-183 82.5q-26 10 -54.5 21.5t-58 24.5t-59 29t-58.5 35
q-37 -33 -57.5 -70t-20.5 -88q0 -89 45 -149t124 -104.5t181 -86.5z" />
    <glyph glyph-name="dieresis" unicode="&#xa8;" horiz-adv-x="1000" 
d="M284 1317q-49 0 -76.5 33t-27.5 82t30 90t88 41h2q50 0 77 -33t27 -82t-29.5 -90t-88.5 -41h-2zM700 1317q-49 0 -76.5 33t-27.5 82t30 90t88 41h2q50 0 77 -33t27 -82t-29.5 -90t-88.5 -41h-2z" />
    <glyph glyph-name="copyright" unicode="&#xa9;" horiz-adv-x="2080" 
d="M190 980q0 178 65 333t181.5 272.5t271 184t332.5 66.5t332 -66.5t270.5 -184t182 -272.5t65.5 -333t-65.5 -334t-182 -274.5t-270.5 -185t-332 -66.5t-332.5 66.5t-271 185t-181.5 274.5t-65 334zM298 980q0 -156 56.5 -294t157 -244t236 -166t292.5 -60t291.5 60
t235 166t157 244t56.5 294q0 155 -56.5 293t-157 243.5t-235 165.5t-291.5 60t-292.5 -60t-236 -165.5t-157 -243.5t-56.5 -293zM1044 504q-144 0 -241 60.5t-146 165.5t-49 240q0 137 64.5 248t176 176.5t253.5 65.5q43 0 94 -6.5t94 -19.5t62 -32v-210h-96l-38 128
q-22 17 -60.5 26.5t-115.5 9.5q-86 0 -148.5 -43t-96 -122.5t-33.5 -188.5q0 -171 92.5 -272.5t243.5 -101.5q69 0 125.5 26t96.5 66l40 -68q-28 -35 -76 -69t-110 -56.5t-132 -22.5z" />
    <glyph glyph-name="ordfeminine" unicode="&#xaa;" horiz-adv-x="881" 
d="M684 682q-35 0 -56.5 12t-21.5 59v60q-20 -18 -60.5 -49t-97.5 -56.5t-125 -25.5q-72 0 -136.5 26.5t-104.5 83t-40 144.5q0 85 48 142.5t128 92t178.5 50.5t198.5 18v52q0 80 -17 129t-59 71t-119 22q-94 0 -171 -32t-116 -54l-35 71q15 14 70 42.5t131 52t154 23.5
q161 0 231 -71t70 -241v-535h101v-63q-18 -5 -44 -10.5t-54 -9.5t-53 -4zM371 777q49 0 112 31t112 68v287q-134 -1 -223 -28t-132.5 -74t-43.5 -109q0 -97 50.5 -136t124.5 -39z" />
    <glyph glyph-name="guillemotleft" unicode="&#xab;" horiz-adv-x="1358" 
d="M564 1094l90 -66l-332 -428l332 -414l-90 -72l-432 418v132zM1116 1094l90 -66l-360 -428l360 -414l-90 -72l-460 418v132z" />
    <glyph glyph-name="logicalnot" unicode="&#xac;" horiz-adv-x="1338" 
d="M1152 618v-518h-134v410h-832v108h966z" />
    <glyph glyph-name="registered" unicode="&#xae;" horiz-adv-x="2080" 
d="M190 980q0 178 65 333t181.5 272.5t271 184t332.5 66.5t332 -66.5t270.5 -184t182 -272.5t65.5 -333t-65.5 -334t-182 -274.5t-270.5 -185t-332 -66.5t-332.5 66.5t-271 185t-181.5 274.5t-65 334zM298 980q0 -156 56.5 -294t157 -244t236 -166t292.5 -60t291.5 60
t235 166t157 244t56.5 294q0 155 -56.5 293t-157 243.5t-235 165.5t-291.5 60t-292.5 -60t-236 -165.5t-157 -243.5t-56.5 -293zM750 602v742l-94 20v82h148q52 0 89.5 1t74.5 2.5t88 2.5q174 0 265 -64.5t91 -177.5q0 -117 -61 -192t-159 -98q54 -26 83.5 -66t47 -83.5
t35 -82.5t46.5 -65.5t82 -30.5v-86h-130q-58 0 -87 32t-45 82t-32.5 104t-46.5 100.5t-89 69.5l-174 2v-298l108 -18v-74h-334v74zM882 1000q16 -3 50.5 -4.5t71 -1.5h58.5q81 0 138.5 55.5t57.5 134.5q0 98 -58.5 137t-169.5 39q-33 0 -68 -1t-80 -9v-350z" />
    <glyph glyph-name="macron" unicode="&#xaf;" horiz-adv-x="922" 
d="M742 1444v-122h-562v122h562z" />
    <glyph glyph-name="degree" unicode="&#xb0;" horiz-adv-x="894" 
d="M446 928q-91 0 -167 45.5t-121.5 121.5t-45.5 167q0 96 45.5 171.5t121.5 119t167 43.5q98 0 174.5 -45.5t120 -121.5t43.5 -167q0 -96 -45.5 -171.5t-122.5 -119t-170 -43.5zM448 1040q96 0 157 61.5t61 160.5q0 92 -63.5 158t-156.5 66q-94 0 -156 -64t-62 -160
q0 -61 30 -111.5t80 -80.5t110 -30z" />
    <glyph glyph-name="plusminus" unicode="&#xb1;" horiz-adv-x="1254" 
d="M562 211v201l6 172l-172 -6h-216v130h216l172 -10l-6 176v240h130v-240l-8 -176l148 10h242v-130h-242l-148 6l8 -172v-201h-130zM180 0v122h864v-122h-864z" />
    <glyph glyph-name="uni00B2" unicode="&#xb2;" horiz-adv-x="844" 
d="M40 909q94 50 183 119t160.5 149t114 162t42.5 158q0 89 -53.5 137.5t-140.5 48.5q-64 0 -106.5 -19.5t-70 -46.5t-47.5 -48l-68 64q29 42 75 81.5t111 65t152 25.5q97 0 168 -36.5t109.5 -99.5t38.5 -142q0 -75 -37.5 -157t-103 -162.5t-150 -149.5t-179.5 -119l422 38
l48 112l78 -16l-38 -228h-684z" />
    <glyph glyph-name="uni00B3" unicode="&#xb3;" horiz-adv-x="770" 
d="M220 831q-39 0 -82.5 5.5t-73.5 12.5v88q23 -6 57 -10t65 -4q121 0 199 28.5t115.5 77t37.5 109.5q0 51 -21.5 88t-72.5 54t-138 9q-8 -2 -28 -6t-39.5 -8t-26.5 -6l-34 90q32 5 64 13.5t60 18.5q90 33 139 77.5t49 107.5q0 42 -24 68.5t-64.5 39.5t-88.5 13
q-70 0 -130 -21t-99 -47l-44 74q26 21 74.5 45t111.5 41.5t134 17.5q86 0 154.5 -22.5t108 -67.5t39.5 -115q0 -66 -44.5 -118t-112 -89t-137.5 -58q116 28 192 6.5t113.5 -73.5t38.5 -115q1 -92 -53 -165.5t-163.5 -116t-275.5 -42.5z" />
    <glyph glyph-name="acute" unicode="&#xb4;" horiz-adv-x="806" 
d="M244 1298l-64 54l310 386l136 -110q-19 -32 -66.5 -80.5t-107 -100t-115 -92t-91.5 -57.5h-2z" />
    <glyph glyph-name="uni00B5" unicode="&#xb5;" horiz-adv-x="1241" 
d="M178 -364v1365l-118 33v74l241 26h3l36 -24v-792q0 -25 18 -61.5t52 -72t81.5 -59t106.5 -23.5q79 0 133 28t87 65t48 63v742l-153 34v74l265 26h3l45 -23l1 -1023h122v-76q-19 -7 -47.5 -14t-61 -12t-63.5 -5q-28 0 -49 8t-32.5 24.5t-11.5 42.5v98q-25 -47 -68.5 -86.5
t-101 -63.5t-124.5 -24q-51 0 -101 16.5t-92.5 52t-70.5 91.5v-504h-148z" />
    <glyph glyph-name="paragraph" unicode="&#xb6;" horiz-adv-x="1394" 
d="M518 102v700q-144 0 -239 51.5t-142 150t-47 238.5q0 123 60.5 220t179.5 152.5t296 55.5q67 0 118.5 -2.5t99.5 -6.5t104 -6.5t132 -2.5h186v-88l-174 -20v-1442l150 -18v-84h-302v1538q-36 3 -101 8.5t-133 5.5q-9 0 -18.5 -1t-17.5 -1v-1550h-348v84z" />
    <glyph glyph-name="periodcentered" unicode="&#xb7;" horiz-adv-x="158" 
d="M70 695q-45 0 -77.5 30.5t-32.5 81.5q0 57 40.5 94.5t89.5 37.5q57 0 82.5 -34t25.5 -78q0 -58 -39 -95t-89 -37z" />
    <glyph glyph-name="cedilla" unicode="&#xb8;" horiz-adv-x="726" 
d="M329 -470q-40 0 -81 8t-68 18v118q21 -7 50 -11.5t44 -4.5q59 0 95.5 25.5t36.5 116.5q0 42 -13 83t-29.5 72.5t-25.5 44.5l46 12l36 -12q21 -19 51 -60t52.5 -97t22.5 -119q0 -68 -28 -111t-77 -63t-112 -20z" />
    <glyph glyph-name="uni00B9" unicode="&#xb9;" horiz-adv-x="628" 
d="M273 926v721q-17 -5 -58 -14t-84.5 -17t-66.5 -10l-18 84q55 11 109 31t100.5 44.5t79.5 46.5l97 -13v-872l187 -12v-70h-539v70z" />
    <glyph glyph-name="ordmasculine" unicode="&#xba;" horiz-adv-x="932" 
d="M467 683q-111 0 -201.5 53.5t-143.5 159.5t-51 265q2 116 38.5 201.5t96 141.5t130.5 83.5t141 27.5q122 0 208.5 -55t132 -158.5t43.5 -250.5q-1 -122 -37 -210.5t-94.5 -145.5t-127.5 -84.5t-135 -27.5zM463 767q72 0 127 33.5t86 115t31 225.5q0 119 -29 206
t-82.5 134.5t-126.5 47.5q-102 0 -172 -87.5t-70 -272.5q0 -124 33 -214t86.5 -139t116.5 -49z" />
    <glyph glyph-name="guillemotright" unicode="&#xbb;" horiz-adv-x="1358" 
d="M796 1094l430 -430v-132l-430 -418l-90 72l330 414l-330 428zM242 1094l460 -430v-132l-460 -418l-90 72l360 414l-360 428z" />
    <glyph glyph-name="onequarter" unicode="&#xbc;" horiz-adv-x="1748" 
d="M273 706v721q-17 -5 -58 -14t-84.5 -17t-66.5 -10l-18 84q55 11 109 31t100.5 44.5t79.5 46.5l97 -13v-872l187 -12v-70h-539v70zM1186 1630h124l-848 -1732h-124zM1415 0v202h-414l-48 72q42 78 89 169t93.5 185t87.5 182t72 160h45l139 -50l-327 -561l-60 -72l323 17
l16 251l135 8v-252l152 10v-119h-152v-202h-151z" />
    <glyph glyph-name="onehalf" unicode="&#xbd;" horiz-adv-x="1850" 
d="M273 706v721q-17 -5 -58 -14t-84.5 -17t-66.5 -10l-18 84q55 11 109 31t100.5 44.5t79.5 46.5l97 -13v-872l187 -12v-70h-539v70zM1186 1630h124l-848 -1732h-124zM1046 64q94 50 183 119t160.5 149t114 162t42.5 158q0 89 -53.5 137.5t-140.5 48.5q-64 0 -106.5 -19.5
t-70 -46.5t-47.5 -48l-68 64q29 42 75 81.5t111 65t152 25.5q97 0 168 -36.5t109.5 -99.5t38.5 -142q0 -75 -37.5 -157t-103 -162.5t-150 -149.5t-179.5 -119l422 38l48 112l78 -16l-38 -228h-684z" />
    <glyph glyph-name="threequarters" unicode="&#xbe;" horiz-adv-x="1858" 
d="M220 611q-39 0 -82.5 5.5t-73.5 12.5v88q23 -6 57 -10t65 -4q121 0 199 28.5t115.5 77t37.5 109.5q0 51 -21.5 88t-72.5 54t-138 9q-8 -2 -28 -6t-39.5 -8t-26.5 -6l-34 90q32 5 64 13.5t60 18.5q90 33 139 77.5t49 107.5q0 42 -24 68.5t-64.5 39.5t-88.5 13
q-70 0 -130 -21t-99 -47l-44 74q26 21 74.5 45t111.5 41.5t134 17.5q86 0 154.5 -22.5t108 -67.5t39.5 -115q0 -66 -44.5 -118t-112 -89t-137.5 -58q116 28 192 6.5t113.5 -73.5t38.5 -115q1 -92 -53 -165.5t-163.5 -116t-275.5 -42.5zM1296 1630h124l-848 -1732h-124z
M1525 0v202h-414l-48 72q42 78 89 169t93.5 185t87.5 182t72 160h45l139 -50l-327 -561l-60 -72l323 17l16 251l135 8v-252l152 10v-119h-152v-202h-151z" />
    <glyph glyph-name="questiondown" unicode="&#xbf;" horiz-adv-x="952" 
d="M612 1010q22 -54 34 -105t17 -95.5t5 -79.5q0 -61 -28.5 -103t-73.5 -72.5t-97 -59.5t-99 -65q-30 -23 -67 -63t-64 -92.5t-27 -112.5q0 -94 46.5 -179.5t142.5 -140t245 -54.5q39 0 90 6.5t82 19.5l26 -104q-21 -12 -59.5 -21.5t-82.5 -15t-82 -5.5q-154 0 -258 40
t-166 108t-89 152.5t-27 173.5q0 91 35.5 162t90.5 127.5t114 103.5t107.5 90t70.5 87q5 11 8.5 30t3.5 32q0 68 -7.5 126.5t-12.5 109.5h122zM550 1500q44 0 78 -29.5t34 -80.5q0 -55 -42 -92.5t-90 -37.5q-60 0 -87 33.5t-27 76.5q0 59 41 94.5t93 35.5z" />
    <glyph glyph-name="Agrave" unicode="&#xc0;" horiz-adv-x="1408" 
d="M122 104l511 1396h173l478 -1396l130 -18v-86h-488v86l170 18l-103 318h-621l-106 -316l178 -20v-86h-450v86zM958 526l-212 666l-51 175l-56 -181l-233 -660h552zM735 1600q-34 14 -77.5 43t-87.5 66t-82 75.5t-63 71.5l136 110l240 -312l-64 -54h-2z" />
    <glyph glyph-name="Aacute" unicode="&#xc1;" horiz-adv-x="1408" 
d="M122 104l511 1396h173l478 -1396l130 -18v-86h-488v86l170 18l-103 318h-621l-106 -316l178 -20v-86h-450v86zM958 526l-212 666l-51 175l-56 -181l-233 -660h552zM719 1600l-64 54l240 312l136 -110q-25 -33 -63 -71.5t-82 -75.5t-87 -66t-78 -43h-2z" />
    <glyph glyph-name="Acircumflex" unicode="&#xc2;" horiz-adv-x="1408" 
d="M122 104l511 1396h173l478 -1396l130 -18v-86h-488v86l170 18l-103 318h-621l-106 -316l178 -20v-86h-450v86zM958 526l-212 666l-51 175l-56 -181l-233 -660h552zM461 1604l-66 50l243 276h170l243 -276l-66 -50l-262 210z" />
    <glyph glyph-name="Atilde" unicode="&#xc3;" horiz-adv-x="1408" 
d="M122 104l511 1396h173l478 -1396l130 -18v-86h-488v86l170 18l-103 318h-621l-106 -316l178 -20v-86h-450v86zM958 526l-212 666l-51 175l-56 -181l-233 -660h552zM835 1620q-49 0 -80.5 21t-54 48.5t-44.5 48.5t-52 21q-40 0 -62 -37.5t-36 -87.5l-73 31q3 99 55 153.5
t123 54.5q50 0 81 -21t53.5 -49t44.5 -49t52 -21q40 0 62.5 38t35.5 88l73 -31q-3 -100 -55 -154t-123 -54z" />
    <glyph glyph-name="Adieresis" unicode="&#xc4;" horiz-adv-x="1408" 
d="M122 104l511 1396h173l478 -1396l130 -18v-86h-488v86l170 18l-103 318h-621l-106 -316l178 -20v-86h-450v86zM958 526l-212 666l-51 175l-56 -181l-233 -660h552zM543 1632q-42 0 -68 33t-26 82t28.5 90t79.5 41h2q42 0 68 -33t26 -82t-28.5 -90t-79.5 -41h-2zM889 1632
q-42 0 -68 33t-26 82t28.5 90t79.5 41h2q42 0 68 -33t26 -82t-28.5 -90t-79.5 -41h-2z" />
    <glyph glyph-name="Aring" unicode="&#xc5;" horiz-adv-x="1408" 
d="M122 104l511 1396h173l478 -1396l130 -18v-86h-488v86l170 18l-103 318h-621l-106 -316l178 -20v-86h-450v86zM958 526l-212 666l-51 175l-56 -181l-233 -660h552zM723 1593q-108 0 -175.5 65t-67.5 169t67.5 169t175.5 65t175.5 -65t67.5 -169t-67.5 -169t-175.5 -65z
M723 1676q65 0 104.5 40.5t39.5 110.5t-39.5 110.5t-104.5 40.5t-104.5 -40.5t-39.5 -110.5t39.5 -110.5t104.5 -40.5z" />
    <glyph glyph-name="AE" unicode="&#xc6;" horiz-adv-x="1914" 
d="M-60 0v84l146 20l566 1278l-262 22v82h1354l28 -294h-96l-55 193l-535 11v-584l369 6l24 166h102v-442h-102l-24 172l-369 4v-617l612 17l104 250l96 -30l-64 -338h-1085v84l173 20v336h-540l-140 -336l156 -20v-84h-458zM426 544h496v846h-138l-112 -256z" />
    <glyph glyph-name="Ccedilla" unicode="&#xc7;" horiz-adv-x="1298" 
d="M754 -22q-163 0 -290 53t-214.5 152t-132.5 239t-45 314q0 167 54 308t151 245t226.5 161t280.5 57q67 0 130.5 -8t119.5 -19t100.5 -21.5t71.5 -15.5l-16 -326h-104l-44 232q-18 16 -58 30t-100.5 23t-139.5 9q-136 0 -245.5 -75.5t-174 -219t-64.5 -348.5
q0 -139 30 -264t91 -222t155 -152.5t222 -55.5q83 0 137 9.5t88.5 26.5t60.5 38l80 190l98 -16l-50 -268q-39 -1 -76 -13t-82 -26.5t-107.5 -25.5t-152.5 -11zM695 -470q-40 0 -81 8t-68 18v118q21 -7 50 -11.5t44 -4.5q59 0 95.5 25.5t36.5 116.5q0 42 -13 83t-29.5 72.5
t-25.5 44.5l46 12l36 -12q21 -19 51 -60t52.5 -97t22.5 -119q0 -68 -28 -111t-77 -63t-112 -20z" />
    <glyph glyph-name="Egrave" unicode="&#xc8;" horiz-adv-x="1246" 
d="M251 104v1274l-168 22v86h1002l28 -294h-96l-62 192l-540 10v-582l368 6l26 166h100v-442h-100l-26 170l-368 6v-616l609 16l110 257l96 -30l-67 -345h-1084v86zM655 1600q-34 14 -77.5 43t-87.5 66t-82 75.5t-63 71.5l136 110l240 -312l-64 -54h-2z" />
    <glyph glyph-name="Eacute" unicode="&#xc9;" horiz-adv-x="1246" 
d="M251 104v1274l-168 22v86h1002l28 -294h-96l-62 192l-540 10v-582l368 6l26 166h100v-442h-100l-26 170l-368 6v-616l609 16l110 257l96 -30l-67 -345h-1084v86zM639 1600l-64 54l240 312l136 -110q-25 -33 -63 -71.5t-82 -75.5t-87 -66t-78 -43h-2z" />
    <glyph glyph-name="Ecircumflex" unicode="&#xca;" horiz-adv-x="1246" 
d="M251 104v1274l-168 22v86h1002l28 -294h-96l-62 192l-540 10v-582l368 6l26 166h100v-442h-100l-26 170l-368 6v-616l609 16l110 257l96 -30l-67 -345h-1084v86zM381 1604l-66 50l243 276h170l243 -276l-66 -50l-262 210z" />
    <glyph glyph-name="Edieresis" unicode="&#xcb;" horiz-adv-x="1246" 
d="M251 104v1274l-168 22v86h1002l28 -294h-96l-62 192l-540 10v-582l368 6l26 166h100v-442h-100l-26 170l-368 6v-616l609 16l110 257l96 -30l-67 -345h-1084v86zM463 1632q-42 0 -68 33t-26 82t28.5 90t79.5 41h2q42 0 68 -33t26 -82t-28.5 -90t-79.5 -41h-2zM809 1632
q-42 0 -68 33t-26 82t28.5 90t79.5 41h2q42 0 68 -33t26 -82t-28.5 -90t-79.5 -41h-2z" />
    <glyph glyph-name="Igrave" unicode="&#xcc;" horiz-adv-x="711" 
d="M273 104v1274l-194 22v86h553v-86l-194 -22v-1274l194 -20v-84h-553v86zM368 1600q-34 14 -77.5 43t-87.5 66t-82 75.5t-63 71.5l136 110l240 -312l-64 -54h-2z" />
    <glyph glyph-name="Iacute" unicode="&#xcd;" horiz-adv-x="711" 
d="M273 104v1274l-194 22v86h553v-86l-194 -22v-1274l194 -20v-84h-553v86zM352 1600l-64 54l240 312l136 -110q-25 -33 -63 -71.5t-82 -75.5t-87 -66t-78 -43h-2z" />
    <glyph glyph-name="Icircumflex" unicode="&#xce;" horiz-adv-x="711" 
d="M273 104v1274l-194 22v86h553v-86l-194 -22v-1274l194 -20v-84h-553v86zM94 1604l-66 50l243 276h170l243 -276l-66 -50l-262 210z" />
    <glyph glyph-name="Idieresis" unicode="&#xcf;" horiz-adv-x="711" 
d="M273 104v1274l-194 22v86h553v-86l-194 -22v-1274l194 -20v-84h-553v86zM176 1632q-42 0 -68 33t-26 82t28.5 90t79.5 41h2q42 0 68 -33t26 -82t-28.5 -90t-79.5 -41h-2zM522 1632q-42 0 -68 33t-26 82t28.5 90t79.5 41h2q42 0 68 -33t26 -82t-28.5 -90t-79.5 -41h-2z
" />
    <glyph glyph-name="Eth" unicode="&#xd0;" horiz-adv-x="1491" 
d="M661 -16q-36 1 -75 3.5t-80.5 5.5t-84 5t-86.5 2h-256v86l172 18v1274l-160 22v86h242q61 0 119.5 4t116.5 8t118 4q194 0 333 -51t227 -145.5t130 -225.5t42 -292q0 -184 -55.5 -333.5t-157 -256t-240 -162.5t-305.5 -52zM685 82q161 2 287 79t198.5 225.5t72.5 365.5
q0 164 -38 286.5t-114 204t-190 122.5t-266 41q-45 0 -84.5 -2.5t-73.5 -5.5t-62 -4v-1296q48 -9 92.5 -12.5t88 -4t89.5 0.5zM106 724v105h643v-105h-643z" />
    <glyph glyph-name="Ntilde" unicode="&#xd1;" horiz-adv-x="1526" 
d="M69 0v86l160 20v1272q-26 4 -53 7.5t-53.5 7.5t-53.5 7v86h322l708 -1026l114 -200v1118l-176 22v86h456v-86l-164 -22v-1378h-104l-716 1030l-164 266v-1192l182 -18v-86h-458zM895 1620q-49 0 -80.5 21t-54 48.5t-44.5 48.5t-52 21q-40 0 -62 -37.5t-36 -87.5l-73 31
q3 99 55 153.5t123 54.5q50 0 81 -21t53.5 -49t44.5 -49t52 -21q40 0 62.5 38t35.5 88l73 -31q-3 -100 -55 -154t-123 -54z" />
    <glyph glyph-name="Ograve" unicode="&#xd2;" horiz-adv-x="1432" 
d="M702 -22q-206 -3 -347 93.5t-213 268t-72 392.5q0 177 51 319t142.5 243t212.5 154.5t260 53.5q202 0 341.5 -92.5t212 -260.5t72.5 -393q0 -175 -50.5 -317.5t-140.5 -244.5t-210 -157.5t-259 -58.5zM712 72q138 0 242.5 76.5t163 228.5t58.5 379q0 192 -53 339
t-155.5 230t-249.5 83q-138 0 -242 -74.5t-162 -224.5t-58 -377q0 -191 53 -340t154.5 -234.5t248.5 -85.5zM728 1600q-34 14 -77.5 43t-87.5 66t-82 75.5t-63 71.5l136 110l240 -312l-64 -54h-2z" />
    <glyph glyph-name="Oacute" unicode="&#xd3;" horiz-adv-x="1432" 
d="M702 -22q-206 -3 -347 93.5t-213 268t-72 392.5q0 177 51 319t142.5 243t212.5 154.5t260 53.5q202 0 341.5 -92.5t212 -260.5t72.5 -393q0 -175 -50.5 -317.5t-140.5 -244.5t-210 -157.5t-259 -58.5zM712 72q138 0 242.5 76.5t163 228.5t58.5 379q0 192 -53 339
t-155.5 230t-249.5 83q-138 0 -242 -74.5t-162 -224.5t-58 -377q0 -191 53 -340t154.5 -234.5t248.5 -85.5zM712 1600l-64 54l240 312l136 -110q-25 -33 -63 -71.5t-82 -75.5t-87 -66t-78 -43h-2z" />
    <glyph glyph-name="Ocircumflex" unicode="&#xd4;" horiz-adv-x="1432" 
d="M702 -22q-206 -3 -347 93.5t-213 268t-72 392.5q0 177 51 319t142.5 243t212.5 154.5t260 53.5q202 0 341.5 -92.5t212 -260.5t72.5 -393q0 -175 -50.5 -317.5t-140.5 -244.5t-210 -157.5t-259 -58.5zM712 72q138 0 242.5 76.5t163 228.5t58.5 379q0 192 -53 339
t-155.5 230t-249.5 83q-138 0 -242 -74.5t-162 -224.5t-58 -377q0 -191 53 -340t154.5 -234.5t248.5 -85.5zM454 1604l-66 50l243 276h170l243 -276l-66 -50l-262 210z" />
    <glyph glyph-name="Otilde" unicode="&#xd5;" horiz-adv-x="1432" 
d="M702 -22q-206 -3 -347 93.5t-213 268t-72 392.5q0 177 51 319t142.5 243t212.5 154.5t260 53.5q202 0 341.5 -92.5t212 -260.5t72.5 -393q0 -175 -50.5 -317.5t-140.5 -244.5t-210 -157.5t-259 -58.5zM712 72q138 0 242.5 76.5t163 228.5t58.5 379q0 192 -53 339
t-155.5 230t-249.5 83q-138 0 -242 -74.5t-162 -224.5t-58 -377q0 -191 53 -340t154.5 -234.5t248.5 -85.5zM828 1620q-49 0 -80.5 21t-54 48.5t-44.5 48.5t-52 21q-40 0 -62 -37.5t-36 -87.5l-73 31q3 99 55 153.5t123 54.5q50 0 81 -21t53.5 -49t44.5 -49t52 -21
q40 0 62.5 38t35.5 88l73 -31q-3 -100 -55 -154t-123 -54z" />
    <glyph glyph-name="Odieresis" unicode="&#xd6;" horiz-adv-x="1432" 
d="M702 -22q-206 -3 -347 93.5t-213 268t-72 392.5q0 177 51 319t142.5 243t212.5 154.5t260 53.5q202 0 341.5 -92.5t212 -260.5t72.5 -393q0 -175 -50.5 -317.5t-140.5 -244.5t-210 -157.5t-259 -58.5zM712 72q138 0 242.5 76.5t163 228.5t58.5 379q0 192 -53 339
t-155.5 230t-249.5 83q-138 0 -242 -74.5t-162 -224.5t-58 -377q0 -191 53 -340t154.5 -234.5t248.5 -85.5zM536 1632q-42 0 -68 33t-26 82t28.5 90t79.5 41h2q42 0 68 -33t26 -82t-28.5 -90t-79.5 -41h-2zM882 1632q-42 0 -68 33t-26 82t28.5 90t79.5 41h2q42 0 68 -33
t26 -82t-28.5 -90t-79.5 -41h-2z" />
    <glyph glyph-name="multiply" unicode="&#xd7;" horiz-adv-x="1338" 
d="M586 643l-342 330l98 102l328 -348l326 348l98 -104l-340 -328l340 -330l-98 -102l-326 348l-328 -348l-98 102z" />
    <glyph glyph-name="Oslash" unicode="&#xd8;" horiz-adv-x="1432" 
d="M1044 1667l72 -28l-730 -1836l-72 26zM702 -22q-206 -3 -347 93.5t-213 268t-72 392.5q0 177 51 319t142.5 243t212.5 154.5t260 53.5q202 0 341.5 -92.5t212 -260.5t72.5 -393q0 -175 -50.5 -317.5t-140.5 -244.5t-210 -157.5t-259 -58.5zM712 72q138 0 242.5 76.5
t163 228.5t58.5 379q0 192 -53 339t-155.5 230t-249.5 83q-138 0 -242 -74.5t-162 -224.5t-58 -377q0 -191 53 -340t154.5 -234.5t248.5 -85.5z" />
    <glyph glyph-name="Ugrave" unicode="&#xd9;" horiz-adv-x="1476" 
d="M758 -16q-193 0 -315.5 71t-180.5 215.5t-58 365.5v742l-150 22v86h490v-86l-172 -22v-760q0 -155 29.5 -258.5t83.5 -164.5t127.5 -87t161.5 -26q128 0 214.5 59t130 175t43.5 286v774l-166 24v86h444v-86l-152 -22v-768q0 -163 -39.5 -281t-111.5 -194.5t-168.5 -113.5
t-210.5 -37zM757 1600q-34 14 -77.5 43t-87.5 66t-82 75.5t-63 71.5l136 110l240 -312l-64 -54h-2z" />
    <glyph glyph-name="Uacute" unicode="&#xda;" horiz-adv-x="1476" 
d="M758 -16q-193 0 -315.5 71t-180.5 215.5t-58 365.5v742l-150 22v86h490v-86l-172 -22v-760q0 -155 29.5 -258.5t83.5 -164.5t127.5 -87t161.5 -26q128 0 214.5 59t130 175t43.5 286v774l-166 24v86h444v-86l-152 -22v-768q0 -163 -39.5 -281t-111.5 -194.5t-168.5 -113.5
t-210.5 -37zM741 1600l-64 54l240 312l136 -110q-25 -33 -63 -71.5t-82 -75.5t-87 -66t-78 -43h-2z" />
    <glyph glyph-name="Ucircumflex" unicode="&#xdb;" horiz-adv-x="1476" 
d="M758 -16q-193 0 -315.5 71t-180.5 215.5t-58 365.5v742l-150 22v86h490v-86l-172 -22v-760q0 -155 29.5 -258.5t83.5 -164.5t127.5 -87t161.5 -26q128 0 214.5 59t130 175t43.5 286v774l-166 24v86h444v-86l-152 -22v-768q0 -163 -39.5 -281t-111.5 -194.5t-168.5 -113.5
t-210.5 -37zM483 1604l-66 50l243 276h170l243 -276l-66 -50l-262 210z" />
    <glyph glyph-name="Udieresis" unicode="&#xdc;" horiz-adv-x="1476" 
d="M758 -16q-193 0 -315.5 71t-180.5 215.5t-58 365.5v742l-150 22v86h490v-86l-172 -22v-760q0 -155 29.5 -258.5t83.5 -164.5t127.5 -87t161.5 -26q128 0 214.5 59t130 175t43.5 286v774l-166 24v86h444v-86l-152 -22v-768q0 -163 -39.5 -281t-111.5 -194.5t-168.5 -113.5
t-210.5 -37zM565 1632q-42 0 -68 33t-26 82t28.5 90t79.5 41h2q42 0 68 -33t26 -82t-28.5 -90t-79.5 -41h-2zM911 1632q-42 0 -68 33t-26 82t28.5 90t79.5 41h2q42 0 68 -33t26 -82t-28.5 -90t-79.5 -41h-2z" />
    <glyph glyph-name="Yacute" unicode="&#xdd;" horiz-adv-x="1280" 
d="M556 104v468l-450 804l-124 24v86h478v-86l-168 -22l290 -566l72 -160l78 160l302 566l-168 22v86h434v-86l-132 -22l-444 -804v-468l228 -20v-86h-618v86zM636 1600l-64 54l240 312l136 -110q-25 -33 -63 -71.5t-82 -75.5t-87 -66t-78 -43h-2z" />
    <glyph glyph-name="Thorn" unicode="&#xde;" horiz-adv-x="1249" 
d="M249 104v1276l-166 22v84h508v-84l-180 -22v-228q38 3 76.5 6.5t78.5 6.5t81 5t82 2q143 0 245.5 -43.5t157.5 -130.5t55 -218q0 -150 -64 -247t-181.5 -144t-278.5 -47q-57 0 -102 1t-81.5 2.5t-68.5 4.5v-246l218 -20v-84h-550v84zM657 432q99 0 177.5 32t124.5 106
t46 200q0 99 -37 168.5t-116.5 105t-206.5 32.5q-67 -1 -128 -7.5t-106 -12.5v-616q65 -7 128 -7.5t118 -0.5z" />
    <glyph glyph-name="germandbls" unicode="&#xdf;" horiz-adv-x="1210" 
d="M718 -22q-40 0 -89.5 7.5t-78.5 14.5v132q38 -15 88.5 -25.5t107.5 -10.5q128 0 183 54.5t55 133.5q0 72 -34 125.5t-84.5 98.5t-101 90.5t-84.5 101t-34 130.5q0 43 21.5 79t53.5 71t64 74.5t53.5 87.5t21.5 110q0 104 -51.5 157t-156.5 53q-101 0 -176.5 -56
t-117.5 -168t-42 -280v-958h-306v86l142 16v824q0 210 77.5 352.5t202 215t266.5 72.5q87 0 162.5 -27.5t121.5 -86t46 -152.5q0 -69 -23 -119.5t-56.5 -90t-67 -73.5t-56.5 -69.5t-23 -79.5q0 -54 36 -98t89 -87.5t106 -93t89 -114.5t36 -153t-34 -152.5t-94.5 -107
t-140 -63.5t-171.5 -21z" />
    <glyph glyph-name="agrave" unicode="&#xe0;" horiz-adv-x="1042" 
d="M376 -22q-89 0 -165 33t-122.5 102.5t-46.5 178.5q0 105 57.5 176t154 113.5t215.5 62.5t243 22v84q0 99 -21 154t-73 77.5t-146 22.5q-117 0 -205.5 -39.5t-136.5 -66.5l-44 88q18 17 83 52t156 64.5t187 29.5q133 0 212 -38t113.5 -123t34.5 -225v-657h124v-74
q-22 -6 -54 -13t-67 -12t-65 -5q-43 0 -63.5 13t-20.5 71v71q-25 -22 -75.5 -60.5t-120.5 -70t-154 -31.5zM436 96q60 0 138 35.5t138 86.5v354q-166 -1 -275 -34.5t-163 -91.5t-54 -134q0 -80 28.5 -127.5t77.5 -68t110 -20.5zM568 1298q-36 17 -91.5 57.5t-115 92
t-106.5 100t-67 80.5l136 110l310 -386l-64 -54h-2z" />
    <glyph glyph-name="aacute" unicode="&#xe1;" horiz-adv-x="1042" 
d="M376 -22q-89 0 -165 33t-122.5 102.5t-46.5 178.5q0 105 57.5 176t154 113.5t215.5 62.5t243 22v84q0 99 -21 154t-73 77.5t-146 22.5q-117 0 -205.5 -39.5t-136.5 -66.5l-44 88q18 17 83 52t156 64.5t187 29.5q133 0 212 -38t113.5 -123t34.5 -225v-657h124v-74
q-22 -6 -54 -13t-67 -12t-65 -5q-43 0 -63.5 13t-20.5 71v71q-25 -22 -75.5 -60.5t-120.5 -70t-154 -31.5zM436 96q60 0 138 35.5t138 86.5v354q-166 -1 -275 -34.5t-163 -91.5t-54 -134q0 -80 28.5 -127.5t77.5 -68t110 -20.5zM468 1298l-64 54l310 386l136 -110
q-19 -32 -66.5 -80.5t-107 -100t-115 -92t-91.5 -57.5h-2z" />
    <glyph glyph-name="acircumflex" unicode="&#xe2;" horiz-adv-x="1042" 
d="M376 -22q-89 0 -165 33t-122.5 102.5t-46.5 178.5q0 105 57.5 176t154 113.5t215.5 62.5t243 22v84q0 99 -21 154t-73 77.5t-146 22.5q-117 0 -205.5 -39.5t-136.5 -66.5l-44 88q18 17 83 52t156 64.5t187 29.5q133 0 212 -38t113.5 -123t34.5 -225v-657h124v-74
q-22 -6 -54 -13t-67 -12t-65 -5q-43 0 -63.5 13t-20.5 71v71q-25 -22 -75.5 -60.5t-120.5 -70t-154 -31.5zM436 96q60 0 138 35.5t138 86.5v354q-166 -1 -275 -34.5t-163 -91.5t-54 -134q0 -80 28.5 -127.5t77.5 -68t110 -20.5zM261 1264l-66 50l237 370h178l237 -370
l-66 -50l-260 279z" />
    <glyph glyph-name="atilde" unicode="&#xe3;" horiz-adv-x="1042" 
d="M376 -22q-89 0 -165 33t-122.5 102.5t-46.5 178.5q0 105 57.5 176t154 113.5t215.5 62.5t243 22v84q0 99 -21 154t-73 77.5t-146 22.5q-117 0 -205.5 -39.5t-136.5 -66.5l-44 88q18 17 83 52t156 64.5t187 29.5q133 0 212 -38t113.5 -123t34.5 -225v-657h124v-74
q-22 -6 -54 -13t-67 -12t-65 -5q-43 0 -63.5 13t-20.5 71v71q-25 -22 -75.5 -60.5t-120.5 -70t-154 -31.5zM436 96q60 0 138 35.5t138 86.5v354q-166 -1 -275 -34.5t-163 -91.5t-54 -134q0 -80 28.5 -127.5t77.5 -68t110 -20.5zM195 1329q20 94 71.5 148t129.5 54
q57 0 92 -21t59.5 -48t48 -48t56.5 -21q44 0 68.5 31t40.5 83l87 -42q-19 -94 -72 -148t-131 -54q-54 0 -88 21t-58 48t-49 48t-61 21q-44 0 -68.5 -31t-39.5 -83z" />
    <glyph glyph-name="adieresis" unicode="&#xe4;" horiz-adv-x="1042" 
d="M376 -22q-89 0 -165 33t-122.5 102.5t-46.5 178.5q0 105 57.5 176t154 113.5t215.5 62.5t243 22v84q0 99 -21 154t-73 77.5t-146 22.5q-117 0 -205.5 -39.5t-136.5 -66.5l-44 88q18 17 83 52t156 64.5t187 29.5q133 0 212 -38t113.5 -123t34.5 -225v-657h124v-74
q-22 -6 -54 -13t-67 -12t-65 -5q-43 0 -63.5 13t-20.5 71v71q-25 -22 -75.5 -60.5t-120.5 -70t-154 -31.5zM436 96q60 0 138 35.5t138 86.5v354q-166 -1 -275 -34.5t-163 -91.5t-54 -134q0 -80 28.5 -127.5t77.5 -68t110 -20.5zM305 1317q-49 0 -76.5 33t-27.5 82t30 90
t88 41h2q50 0 77 -33t27 -82t-29.5 -90t-88.5 -41h-2zM721 1317q-49 0 -76.5 33t-27.5 82t30 90t88 41h2q50 0 77 -33t27 -82t-29.5 -90t-88.5 -41h-2z" />
    <glyph glyph-name="aring" unicode="&#xe5;" horiz-adv-x="1042" 
d="M376 -22q-89 0 -165 33t-122.5 102.5t-46.5 178.5q0 105 57.5 176t154 113.5t215.5 62.5t243 22v84q0 99 -21 154t-73 77.5t-146 22.5q-117 0 -205.5 -39.5t-136.5 -66.5l-44 88q18 17 83 52t156 64.5t187 29.5q133 0 212 -38t113.5 -123t34.5 -225v-657h124v-74
q-22 -6 -54 -13t-67 -12t-65 -5q-43 0 -63.5 13t-20.5 71v71q-25 -22 -75.5 -60.5t-120.5 -70t-154 -31.5zM436 96q60 0 138 35.5t138 86.5v354q-166 -1 -275 -34.5t-163 -91.5t-54 -134q0 -80 28.5 -127.5t77.5 -68t110 -20.5zM521 1280q-108 0 -175.5 65t-67.5 169
t67.5 169t175.5 65t175.5 -65t67.5 -169t-67.5 -169t-175.5 -65zM521 1363q65 0 104.5 40.5t39.5 110.5t-39.5 110.5t-104.5 40.5t-104.5 -40.5t-39.5 -110.5t39.5 -110.5t104.5 -40.5z" />
    <glyph glyph-name="ae" unicode="&#xe6;" horiz-adv-x="1661" 
d="M378 -22q-89 0 -165.5 33t-123.5 102.5t-47 178.5q0 104 58 175t154.5 114t214.5 63t237 22l-1 54q-2 118 -21 180t-68.5 85t-143.5 23q-76 0 -144.5 -19.5t-124.5 -46.5t-95 -48l-42 84q18 17 64 43t108.5 51.5t133.5 42.5t138 17q137 0 216.5 -50t113.5 -136
q35 68 94 111t131.5 63t148.5 20q177 0 277 -101t107 -295q0 -57 -2 -100t-10 -76h-716q0 -101 23.5 -188t70 -151.5t115 -100.5t157.5 -36q86 0 173.5 31t132.5 71l32 -74q-38 -39 -100 -71t-137 -51.5t-151 -19.5q-93 0 -168 26t-132 75.5t-96 118.5q-31 -43 -87.5 -94.5
t-138 -88.5t-186.5 -37zM872 662h546q2 21 3 44t1 44q0 123 -57 205.5t-191 82.5q-60 0 -114 -23t-95.5 -69.5t-66 -117.5t-26.5 -166zM436 96q70 0 133 28.5t111 70.5t72 83q-25 69 -35.5 143t-10.5 159q-121 -1 -212 -21.5t-152 -57t-91.5 -85t-30.5 -104.5
q0 -120 63 -168t153 -48z" />
    <glyph glyph-name="ccedilla" unicode="&#xe7;" horiz-adv-x="1004" 
d="M567 -22q-162 0 -272 75t-166.5 203t-57.5 286q-1 119 33 226.5t103 191t174 132t246 48.5q58 0 112.5 -10.5t98 -24.5t69.5 -25l-8 -286h-100l-42 192q-3 16 -29.5 29.5t-64.5 22t-78 8.5q-103 0 -179.5 -53.5t-119 -152.5t-43.5 -236q-1 -130 26.5 -226.5t76.5 -159
t115 -93.5t142 -31q61 0 117 14.5t101.5 35.5t75.5 42l32 -66q-37 -37 -95.5 -69.5t-128 -52.5t-138.5 -20zM467 -470q-40 0 -81 8t-68 18v118q21 -7 50 -11.5t44 -4.5q59 0 95.5 25.5t36.5 116.5q0 42 -13 83t-29.5 72.5t-25.5 44.5l46 12l36 -12q21 -19 51 -60t52.5 -97
t22.5 -119q0 -68 -28 -111t-77 -63t-112 -20z" />
    <glyph glyph-name="egrave" unicode="&#xe8;" horiz-adv-x="1018" 
d="M541 -22q-158 0 -265.5 74t-162 205.5t-54.5 302.5q0 129 38.5 235.5t107.5 183.5t162.5 119t203.5 42q177 0 277 -101t107 -295q0 -57 -2 -100t-10 -76h-712q0 -101 23 -188t68.5 -151.5t113.5 -100.5t157 -36q86 0 174 31t134 71l32 -74q-38 -39 -100.5 -71
t-138.5 -51.5t-153 -19.5zM233 662h542q3 16 4.5 43t1.5 45q0 123 -58 205.5t-192 82.5q-60 0 -111.5 -20t-91 -64t-64 -116t-31.5 -176zM610 1298q-36 17 -91.5 57.5t-115 92t-106.5 100t-67 80.5l136 110l310 -386l-64 -54h-2z" />
    <glyph glyph-name="eacute" unicode="&#xe9;" horiz-adv-x="1018" 
d="M541 -22q-158 0 -265.5 74t-162 205.5t-54.5 302.5q0 129 38.5 235.5t107.5 183.5t162.5 119t203.5 42q177 0 277 -101t107 -295q0 -57 -2 -100t-10 -76h-712q0 -101 23 -188t68.5 -151.5t113.5 -100.5t157 -36q86 0 174 31t134 71l32 -74q-38 -39 -100.5 -71
t-138.5 -51.5t-153 -19.5zM233 662h542q3 16 4.5 43t1.5 45q0 123 -58 205.5t-192 82.5q-60 0 -111.5 -20t-91 -64t-64 -116t-31.5 -176zM510 1298l-64 54l310 386l136 -110q-19 -32 -66.5 -80.5t-107 -100t-115 -92t-91.5 -57.5h-2z" />
    <glyph glyph-name="ecircumflex" unicode="&#xea;" horiz-adv-x="1018" 
d="M541 -22q-158 0 -265.5 74t-162 205.5t-54.5 302.5q0 129 38.5 235.5t107.5 183.5t162.5 119t203.5 42q177 0 277 -101t107 -295q0 -57 -2 -100t-10 -76h-712q0 -101 23 -188t68.5 -151.5t113.5 -100.5t157 -36q86 0 174 31t134 71l32 -74q-38 -39 -100.5 -71
t-138.5 -51.5t-153 -19.5zM233 662h542q3 16 4.5 43t1.5 45q0 123 -58 205.5t-192 82.5q-60 0 -111.5 -20t-91 -64t-64 -116t-31.5 -176zM303 1264l-66 50l237 370h178l237 -370l-66 -50l-260 279z" />
    <glyph glyph-name="edieresis" unicode="&#xeb;" horiz-adv-x="1018" 
d="M541 -22q-158 0 -265.5 74t-162 205.5t-54.5 302.5q0 129 38.5 235.5t107.5 183.5t162.5 119t203.5 42q177 0 277 -101t107 -295q0 -57 -2 -100t-10 -76h-712q0 -101 23 -188t68.5 -151.5t113.5 -100.5t157 -36q86 0 174 31t134 71l32 -74q-38 -39 -100.5 -71
t-138.5 -51.5t-153 -19.5zM233 662h542q3 16 4.5 43t1.5 45q0 123 -58 205.5t-192 82.5q-60 0 -111.5 -20t-91 -64t-64 -116t-31.5 -176zM347 1317q-49 0 -76.5 33t-27.5 82t30 90t88 41h2q50 0 77 -33t27 -82t-29.5 -90t-88.5 -41h-2zM763 1317q-49 0 -76.5 33t-27.5 82
t30 90t88 41h2q50 0 77 -33t27 -82t-29.5 -90t-88.5 -41h-2z" />
    <glyph glyph-name="igrave" unicode="&#xec;" horiz-adv-x="624" 
d="M62 0v86l176 16v876l-156 34v90l274 32h4l40 -32v-1002l174 -14v-86h-512zM362 1298q-36 17 -91.5 57.5t-115 92t-106.5 100t-67 80.5l136 110l310 -386l-64 -54h-2z" />
    <glyph glyph-name="iacute" unicode="&#xed;" horiz-adv-x="624" 
d="M62 0v86l176 16v876l-156 34v90l274 32h4l40 -32v-1002l174 -14v-86h-512zM262 1298l-64 54l310 386l136 -110q-19 -32 -66.5 -80.5t-107 -100t-115 -92t-91.5 -57.5h-2z" />
    <glyph glyph-name="icircumflex" unicode="&#xee;" horiz-adv-x="624" 
d="M62 0v86l176 16v876l-156 34v90l274 32h4l40 -32v-1002l174 -14v-86h-512zM55 1264l-66 50l237 370h178l237 -370l-66 -50l-260 279z" />
    <glyph glyph-name="idieresis" unicode="&#xef;" horiz-adv-x="624" 
d="M62 0v86l176 16v876l-156 34v90l274 32h4l40 -32v-1002l174 -14v-86h-512zM99 1317q-49 0 -76.5 33t-27.5 82t30 90t88 41h2q50 0 77 -33t27 -82t-29.5 -90t-88.5 -41h-2zM515 1317q-49 0 -76.5 33t-27.5 82t30 90t88 41h2q50 0 77 -33t27 -82t-29.5 -90t-88.5 -41h-2z
" />
    <glyph glyph-name="eth" unicode="&#xf0;" horiz-adv-x="1144" 
d="M558 -22q-121 0 -210.5 45.5t-148 123t-87 174t-28.5 197.5q0 155 44.5 271.5t119 194.5t165.5 117t183 39q78 0 134 -13t92 -31q-34 79 -87.5 160.5t-127 154t-167.5 123.5l113 27l-165 -203l-88 60l162 204l-20 -86q-31 26 -86 52.5t-110 48t-86 31.5l34 88
q53 -13 104 -29.5t105.5 -41t118.5 -63.5l-83 -23l146 196l87 -69l-140 -184l-12 80q131 -73 233.5 -172.5t173.5 -224t108 -270t37 -309.5q0 -95 -18 -191t-56 -181.5t-98.5 -152t-145 -105t-196.5 -38.5zM562 74q87 0 149 34.5t102 104t58.5 174.5t18.5 247
q0 78 -6.5 145.5t-16 117.5t-17.5 75q-21 23 -81 51.5t-177 28.5q-66 0 -125 -33t-104 -98.5t-71 -163t-26 -227.5q0 -74 16 -154t50.5 -148.5t91 -111t138.5 -42.5z" />
    <glyph glyph-name="ntilde" unicode="&#xf1;" horiz-adv-x="1306" 
d="M216 102v876l-154 34v90l254 32h6l38 -32v-88l-2 -50q44 38 114.5 78t151.5 67t156 27q130 0 199 -50.5t95 -154.5t26 -265v-566l150 -14v-86h-446v86l134 14v568q0 116 -16 192.5t-64.5 114t-145.5 37.5q-57 0 -118.5 -20t-118 -51t-97.5 -63v-776l146 -16v-86h-442v86z
M309 1329q20 94 71.5 148t129.5 54q57 0 92 -21t59.5 -48t48 -48t56.5 -21q44 0 68.5 31t40.5 83l87 -42q-19 -94 -72 -148t-131 -54q-54 0 -88 21t-58 48t-49 48t-61 21q-44 0 -68.5 -31t-39.5 -83z" />
    <glyph glyph-name="ograve" unicode="&#xf2;" horiz-adv-x="1150" 
d="M71 562q0 137 43.5 244t117.5 181.5t165.5 113.5t187.5 39q179 0 287.5 -80.5t157.5 -213.5t49 -290q0 -136 -43.5 -243.5t-117.5 -182t-165.5 -113.5t-187.5 -39q-134 0 -228.5 46.5t-153 127.5t-85.5 186.5t-27 223.5zM575 82q101 0 173 52t110.5 155t38.5 255
q0 99 -17.5 188t-55 157.5t-98.5 107.5t-149 39q-102 0 -174.5 -52t-111 -154.5t-38.5 -255.5q0 -100 18 -189t56 -157.5t99.5 -107t148.5 -38.5zM622 1298q-36 17 -91.5 57.5t-115 92t-106.5 100t-67 80.5l136 110l310 -386l-64 -54h-2z" />
    <glyph glyph-name="oacute" unicode="&#xf3;" horiz-adv-x="1150" 
d="M71 562q0 137 43.5 244t117.5 181.5t165.5 113.5t187.5 39q179 0 287.5 -80.5t157.5 -213.5t49 -290q0 -136 -43.5 -243.5t-117.5 -182t-165.5 -113.5t-187.5 -39q-134 0 -228.5 46.5t-153 127.5t-85.5 186.5t-27 223.5zM575 82q101 0 173 52t110.5 155t38.5 255
q0 99 -17.5 188t-55 157.5t-98.5 107.5t-149 39q-102 0 -174.5 -52t-111 -154.5t-38.5 -255.5q0 -100 18 -189t56 -157.5t99.5 -107t148.5 -38.5zM522 1298l-64 54l310 386l136 -110q-19 -32 -66.5 -80.5t-107 -100t-115 -92t-91.5 -57.5h-2z" />
    <glyph glyph-name="ocircumflex" unicode="&#xf4;" horiz-adv-x="1150" 
d="M71 562q0 137 43.5 244t117.5 181.5t165.5 113.5t187.5 39q179 0 287.5 -80.5t157.5 -213.5t49 -290q0 -136 -43.5 -243.5t-117.5 -182t-165.5 -113.5t-187.5 -39q-134 0 -228.5 46.5t-153 127.5t-85.5 186.5t-27 223.5zM575 82q101 0 173 52t110.5 155t38.5 255
q0 99 -17.5 188t-55 157.5t-98.5 107.5t-149 39q-102 0 -174.5 -52t-111 -154.5t-38.5 -255.5q0 -100 18 -189t56 -157.5t99.5 -107t148.5 -38.5zM315 1264l-66 50l237 370h178l237 -370l-66 -50l-260 279z" />
    <glyph glyph-name="otilde" unicode="&#xf5;" horiz-adv-x="1150" 
d="M71 562q0 137 43.5 244t117.5 181.5t165.5 113.5t187.5 39q179 0 287.5 -80.5t157.5 -213.5t49 -290q0 -136 -43.5 -243.5t-117.5 -182t-165.5 -113.5t-187.5 -39q-134 0 -228.5 46.5t-153 127.5t-85.5 186.5t-27 223.5zM575 82q101 0 173 52t110.5 155t38.5 255
q0 99 -17.5 188t-55 157.5t-98.5 107.5t-149 39q-102 0 -174.5 -52t-111 -154.5t-38.5 -255.5q0 -100 18 -189t56 -157.5t99.5 -107t148.5 -38.5zM249 1329q20 94 71.5 148t129.5 54q57 0 92 -21t59.5 -48t48 -48t56.5 -21q44 0 68.5 31t40.5 83l87 -42q-19 -94 -72 -148
t-131 -54q-54 0 -88 21t-58 48t-49 48t-61 21q-44 0 -68.5 -31t-39.5 -83z" />
    <glyph glyph-name="odieresis" unicode="&#xf6;" horiz-adv-x="1150" 
d="M71 562q0 137 43.5 244t117.5 181.5t165.5 113.5t187.5 39q179 0 287.5 -80.5t157.5 -213.5t49 -290q0 -136 -43.5 -243.5t-117.5 -182t-165.5 -113.5t-187.5 -39q-134 0 -228.5 46.5t-153 127.5t-85.5 186.5t-27 223.5zM575 82q101 0 173 52t110.5 155t38.5 255
q0 99 -17.5 188t-55 157.5t-98.5 107.5t-149 39q-102 0 -174.5 -52t-111 -154.5t-38.5 -255.5q0 -100 18 -189t56 -157.5t99.5 -107t148.5 -38.5zM359 1317q-49 0 -76.5 33t-27.5 82t30 90t88 41h2q50 0 77 -33t27 -82t-29.5 -90t-88.5 -41h-2zM775 1317q-49 0 -76.5 33
t-27.5 82t30 90t88 41h2q50 0 77 -33t27 -82t-29.5 -90t-88.5 -41h-2z" />
    <glyph glyph-name="divide" unicode="&#xf7;" horiz-adv-x="1338" 
d="M679 922q-43 0 -77.5 30.5t-34.5 81.5q0 54 42 92t90 38q60 0 86 -33.5t26 -78.5q0 -58 -40.5 -94t-91.5 -36zM1121 702v-122h-904v122h904zM547 228q0 56 42.5 93t91.5 37q59 0 85.5 -33t26.5 -77q0 -58 -41.5 -94t-92.5 -36q-43 0 -77.5 29.5t-34.5 80.5z" />
    <glyph glyph-name="oslash" unicode="&#xf8;" horiz-adv-x="1150" 
d="M286 -160l-70 36l87 167q-124 74 -178 213.5t-54 305.5q0 137 43.5 244t117.5 182t165.5 114t187.5 38q56 -1 104.5 -9.5t90.5 -24.5l82 170l70 -34l-82 -170q122 -75 175.5 -213t53.5 -303q0 -136 -43.5 -243.5t-117.5 -182t-165.5 -113.5t-187.5 -39q-55 0 -102.5 8
t-88.5 23zM369 169l185 399l176 426q-31 20 -69.5 31t-83.5 11q-102 0 -174.5 -52t-111 -154.5t-38.5 -255.5q0 -124 27.5 -230.5t88.5 -174.5zM575 82q101 0 173 52t110.5 155t38.5 255q0 119 -25 223.5t-82 172.5l-177 -391l-182 -430q30 -18 66 -27.5t78 -9.5z" />
    <glyph glyph-name="ugrave" unicode="&#xf9;" horiz-adv-x="1243" 
d="M983 -18q-48 0 -74 16.5t-26 67.5v78q-40 -36 -98.5 -74.5t-127 -65t-140.5 -26.5q-184 0 -261.5 103t-77.5 331v588l-118 34v74l242 26h2l36 -24v-674q0 -119 18 -193t67 -108.5t142 -34.5q63 0 119 21t102 50.5t77 56.5v772l-152 34v74l266 26h2l46 -24v-1022h124
l-2 -76q-33 -9 -73 -19.5t-93 -10.5zM633 1298q-36 17 -91.5 57.5t-115 92t-106.5 100t-67 80.5l136 110l310 -386l-64 -54h-2z" />
    <glyph glyph-name="uacute" unicode="&#xfa;" horiz-adv-x="1243" 
d="M983 -18q-48 0 -74 16.5t-26 67.5v78q-40 -36 -98.5 -74.5t-127 -65t-140.5 -26.5q-184 0 -261.5 103t-77.5 331v588l-118 34v74l242 26h2l36 -24v-674q0 -119 18 -193t67 -108.5t142 -34.5q63 0 119 21t102 50.5t77 56.5v772l-152 34v74l266 26h2l46 -24v-1022h124
l-2 -76q-33 -9 -73 -19.5t-93 -10.5zM533 1298l-64 54l310 386l136 -110q-19 -32 -66.5 -80.5t-107 -100t-115 -92t-91.5 -57.5h-2z" />
    <glyph glyph-name="ucircumflex" unicode="&#xfb;" horiz-adv-x="1243" 
d="M983 -18q-48 0 -74 16.5t-26 67.5v78q-40 -36 -98.5 -74.5t-127 -65t-140.5 -26.5q-184 0 -261.5 103t-77.5 331v588l-118 34v74l242 26h2l36 -24v-674q0 -119 18 -193t67 -108.5t142 -34.5q63 0 119 21t102 50.5t77 56.5v772l-152 34v74l266 26h2l46 -24v-1022h124
l-2 -76q-33 -9 -73 -19.5t-93 -10.5zM326 1264l-66 50l237 370h178l237 -370l-66 -50l-260 279z" />
    <glyph glyph-name="udieresis" unicode="&#xfc;" horiz-adv-x="1243" 
d="M983 -18q-48 0 -74 16.5t-26 67.5v78q-40 -36 -98.5 -74.5t-127 -65t-140.5 -26.5q-184 0 -261.5 103t-77.5 331v588l-118 34v74l242 26h2l36 -24v-674q0 -119 18 -193t67 -108.5t142 -34.5q63 0 119 21t102 50.5t77 56.5v772l-152 34v74l266 26h2l46 -24v-1022h124
l-2 -76q-33 -9 -73 -19.5t-93 -10.5zM370 1317q-49 0 -76.5 33t-27.5 82t30 90t88 41h2q50 0 77 -33t27 -82t-29.5 -90t-88.5 -41h-2zM786 1317q-49 0 -76.5 33t-27.5 82t30 90t88 41h2q50 0 77 -33t27 -82t-29.5 -90t-88.5 -41h-2z" />
    <glyph glyph-name="yacute" unicode="&#xfd;" horiz-adv-x="1150" 
d="M256 -500q-27 0 -51.5 4t-36.5 10v151q12 -6 38.5 -9t53.5 -3q36 0 74 11.5t77.5 46.5t80.5 104.5t82 184.5h-88l-382 1002l-94 26v82h442v-82l-162 -24l210 -612l104 -326l100 328l188 610l-140 24v82h384v-82l-104 -24q-71 -219 -124.5 -381t-91.5 -276.5t-63.5 -190
t-42 -120.5t-26.5 -68q-62 -153 -117.5 -257.5t-127.5 -157.5t-183 -53zM522 1298l-64 54l310 386l136 -110q-19 -32 -66.5 -80.5t-107 -100t-115 -92t-91.5 -57.5h-2z" />
    <glyph glyph-name="thorn" unicode="&#xfe;" horiz-adv-x="1174" 
d="M6 -484v78l156 22v1896l-172 18v74l292 34h4l38 -28v-608q35 33 85 65t114.5 52.5t142.5 20.5q112 0 212 -56t163 -176t63 -312q0 -128 -39.5 -240t-114 -197t-180 -133t-236.5 -48q-60 0 -114.5 6.5t-101.5 15.5l4 -132l2 -252l230 -22v-78h-548zM548 80q108 0 193 53
t134.5 161t52.5 274q2 119 -24 204.5t-72 140t-105.5 80t-126.5 25.5q-63 0 -117 -21.5t-95 -51.5t-64 -55v-740q15 -34 82 -52t142 -18z" />
    <glyph glyph-name="ydieresis" unicode="&#xff;" horiz-adv-x="1150" 
d="M256 -500q-27 0 -51.5 4t-36.5 10v151q12 -6 38.5 -9t53.5 -3q36 0 74 11.5t77.5 46.5t80.5 104.5t82 184.5h-88l-382 1002l-94 26v82h442v-82l-162 -24l210 -612l104 -326l100 328l188 610l-140 24v82h384v-82l-104 -24q-71 -219 -124.5 -381t-91.5 -276.5t-63.5 -190
t-42 -120.5t-26.5 -68q-62 -153 -117.5 -257.5t-127.5 -157.5t-183 -53zM359 1317q-49 0 -76.5 33t-27.5 82t30 90t88 41h2q50 0 77 -33t27 -82t-29.5 -90t-88.5 -41h-2zM775 1317q-49 0 -76.5 33t-27.5 82t30 90t88 41h2q50 0 77 -33t27 -82t-29.5 -90t-88.5 -41h-2z" />
    <glyph glyph-name="Amacron" unicode="&#x100;" horiz-adv-x="1408" 
d="M122 104l511 1396h173l478 -1396l130 -18v-86h-488v86l170 18l-103 318h-621l-106 -316l178 -20v-86h-450v86zM958 526l-212 666l-51 175l-56 -181l-233 -660h552zM986 1769v-111h-526v111h526z" />
    <glyph glyph-name="amacron" unicode="&#x101;" horiz-adv-x="1042" 
d="M376 -22q-89 0 -165 33t-122.5 102.5t-46.5 178.5q0 105 57.5 176t154 113.5t215.5 62.5t243 22v84q0 99 -21 154t-73 77.5t-146 22.5q-117 0 -205.5 -39.5t-136.5 -66.5l-44 88q18 17 83 52t156 64.5t187 29.5q133 0 212 -38t113.5 -123t34.5 -225v-657h124v-74
q-22 -6 -54 -13t-67 -12t-65 -5q-43 0 -63.5 13t-20.5 71v71q-25 -22 -75.5 -60.5t-120.5 -70t-154 -31.5zM436 96q60 0 138 35.5t138 86.5v354q-166 -1 -275 -34.5t-163 -91.5t-54 -134q0 -80 28.5 -127.5t77.5 -68t110 -20.5zM802 1444v-122h-562v122h562z" />
    <glyph glyph-name="Abreve" unicode="&#x102;" horiz-adv-x="1408" 
d="M122 104l511 1396h173l478 -1396l130 -18v-86h-488v86l170 18l-103 318h-621l-106 -316l178 -20v-86h-450v86zM958 526l-212 666l-51 175l-56 -181l-233 -660h552zM723 1626q-85 0 -149.5 31.5t-101 88.5t-36.5 131q0 10 1 21t3 21h90q0 -5 0.5 -13t1.5 -18
q5 -33 24.5 -65t59.5 -53.5t107 -21.5t107 21.5t59.5 53.5t24.5 65q2 10 2 18v13h90q2 -10 3 -21t1 -21q0 -74 -36.5 -131t-101 -88.5t-149.5 -31.5z" />
    <glyph glyph-name="abreve" unicode="&#x103;" horiz-adv-x="1042" 
d="M376 -22q-89 0 -165 33t-122.5 102.5t-46.5 178.5q0 105 57.5 176t154 113.5t215.5 62.5t243 22v84q0 99 -21 154t-73 77.5t-146 22.5q-117 0 -205.5 -39.5t-136.5 -66.5l-44 88q18 17 83 52t156 64.5t187 29.5q133 0 212 -38t113.5 -123t34.5 -225v-657h124v-74
q-22 -6 -54 -13t-67 -12t-65 -5q-43 0 -63.5 13t-20.5 71v71q-25 -22 -75.5 -60.5t-120.5 -70t-154 -31.5zM436 96q60 0 138 35.5t138 86.5v354q-166 -1 -275 -34.5t-163 -91.5t-54 -134q0 -80 28.5 -127.5t77.5 -68t110 -20.5zM521 1299q-100 0 -171 38.5t-108.5 103.5
t-37.5 144q0 10 1 21t3 21h90q0 -5 0.5 -13t1.5 -18q6 -38 26.5 -77.5t66.5 -66t128 -26.5t128 26.5t66.5 66t26.5 77.5q2 10 2 18v13h90q2 -10 3 -21t1 -21q0 -79 -37.5 -144t-108.5 -103.5t-171 -38.5z" />
    <glyph glyph-name="Aogonek" unicode="&#x104;" horiz-adv-x="1408" 
d="M122 104l511 1396h173l478 -1396l130 -18v-86h-488v86l170 18l-103 318h-621l-106 -316l178 -20v-86h-450v86zM958 526l-212 666l-51 175l-56 -181l-233 -660h552zM1161 -496q-61 0 -112 21.5t-81.5 63.5t-30.5 102q0 71 35 130t87 105t102 76l60 8l76 -8
q-72 -30 -118.5 -78t-69 -101t-22.5 -98q0 -52 25.5 -81t82.5 -29q52 0 98 18.5t84 47.5l30 -84q-29 -36 -94.5 -64.5t-151.5 -28.5z" />
    <glyph glyph-name="aogonek" unicode="&#x105;" horiz-adv-x="1042" 
d="M376 -22q-89 0 -165 33t-122.5 102.5t-46.5 178.5q0 105 57.5 176t154 113.5t215.5 62.5t243 22v84q0 99 -21 154t-73 77.5t-146 22.5q-117 0 -205.5 -39.5t-136.5 -66.5l-44 88q18 17 83 52t156 64.5t187 29.5q133 0 212 -38t113.5 -123t34.5 -225v-657h124v-74
q-22 -6 -54 -13t-67 -12t-65 -5q-43 0 -63.5 13t-20.5 71v71q-25 -22 -75.5 -60.5t-120.5 -70t-154 -31.5zM436 96q60 0 138 35.5t138 86.5v354q-166 -1 -275 -34.5t-163 -91.5t-54 -134q0 -80 28.5 -127.5t77.5 -68t110 -20.5zM727 -496q-46 0 -98 16t-89 56t-37 110
q0 49 22.5 96t60 88.5t84.5 75.5t96 56l60 8l76 -8q-68 -30 -124.5 -73t-90.5 -96t-34 -113q0 -52 35.5 -78.5t92.5 -26.5q52 0 95 17t89 46l30 -81q-34 -24 -74.5 -45t-88 -34.5t-105.5 -13.5z" />
    <glyph glyph-name="Cacute" unicode="&#x106;" horiz-adv-x="1298" 
d="M754 -22q-163 0 -290 53t-214.5 152t-132.5 239t-45 314q0 167 54 308t151 245t226.5 161t280.5 57q67 0 130.5 -8t119.5 -19t100.5 -21.5t71.5 -15.5l-16 -326h-104l-44 232q-18 16 -58 30t-100.5 23t-139.5 9q-136 0 -245.5 -75.5t-174 -219t-64.5 -348.5
q0 -139 30 -264t91 -222t155 -152.5t222 -55.5q83 0 137 9.5t88.5 26.5t60.5 38l80 190l98 -16l-50 -268q-39 -1 -76 -13t-82 -26.5t-107.5 -25.5t-152.5 -11zM765 1600l-64 54l240 312l136 -110q-25 -33 -63 -71.5t-82 -75.5t-87 -66t-78 -43h-2z" />
    <glyph glyph-name="cacute" unicode="&#x107;" horiz-adv-x="1004" 
d="M567 -22q-162 0 -272 75t-166.5 203t-57.5 286q-1 119 33 226.5t103 191t174 132t246 48.5q58 0 112.5 -10.5t98 -24.5t69.5 -25l-8 -286h-100l-42 192q-3 16 -29.5 29.5t-64.5 22t-78 8.5q-103 0 -179.5 -53.5t-119 -152.5t-43.5 -236q-1 -130 26.5 -226.5t76.5 -159
t115 -93.5t142 -31q61 0 117 14.5t101.5 35.5t75.5 42l32 -66q-37 -37 -95.5 -69.5t-128 -52.5t-138.5 -20zM548 1298l-64 54l310 386l136 -110q-19 -32 -66.5 -80.5t-107 -100t-115 -92t-91.5 -57.5h-2z" />
    <glyph glyph-name="Ccircumflex" unicode="&#x108;" horiz-adv-x="1298" 
d="M754 -22q-163 0 -290 53t-214.5 152t-132.5 239t-45 314q0 167 54 308t151 245t226.5 161t280.5 57q67 0 130.5 -8t119.5 -19t100.5 -21.5t71.5 -15.5l-16 -326h-104l-44 232q-18 16 -58 30t-100.5 23t-139.5 9q-136 0 -245.5 -75.5t-174 -219t-64.5 -348.5
q0 -139 30 -264t91 -222t155 -152.5t222 -55.5q83 0 137 9.5t88.5 26.5t60.5 38l80 190l98 -16l-50 -268q-39 -1 -76 -13t-82 -26.5t-107.5 -25.5t-152.5 -11zM507 1604l-66 50l243 276h170l243 -276l-66 -50l-262 210z" />
    <glyph glyph-name="ccircumflex" unicode="&#x109;" horiz-adv-x="1004" 
d="M567 -22q-162 0 -272 75t-166.5 203t-57.5 286q-1 119 33 226.5t103 191t174 132t246 48.5q58 0 112.5 -10.5t98 -24.5t69.5 -25l-8 -286h-100l-42 192q-3 16 -29.5 29.5t-64.5 22t-78 8.5q-103 0 -179.5 -53.5t-119 -152.5t-43.5 -236q-1 -130 26.5 -226.5t76.5 -159
t115 -93.5t142 -31q61 0 117 14.5t101.5 35.5t75.5 42l32 -66q-37 -37 -95.5 -69.5t-128 -52.5t-138.5 -20zM341 1264l-66 50l237 370h178l237 -370l-66 -50l-260 279z" />
    <glyph glyph-name="Cdotaccent" unicode="&#x10a;" horiz-adv-x="1298" 
d="M754 -22q-163 0 -290 53t-214.5 152t-132.5 239t-45 314q0 167 54 308t151 245t226.5 161t280.5 57q67 0 130.5 -8t119.5 -19t100.5 -21.5t71.5 -15.5l-16 -326h-104l-44 232q-18 16 -58 30t-100.5 23t-139.5 9q-136 0 -245.5 -75.5t-174 -219t-64.5 -348.5
q0 -139 30 -264t91 -222t155 -152.5t222 -55.5q83 0 137 9.5t88.5 26.5t60.5 38l80 190l98 -16l-50 -268q-39 -1 -76 -13t-82 -26.5t-107.5 -25.5t-152.5 -11zM761 1632q-55 0 -83 33t-28 82t30.5 90t94.5 41h2q55 0 83 -33t28 -82t-30.5 -90t-94.5 -41h-2z" />
    <glyph glyph-name="cdotaccent" unicode="&#x10b;" horiz-adv-x="1004" 
d="M567 -22q-162 0 -272 75t-166.5 203t-57.5 286q-1 119 33 226.5t103 191t174 132t246 48.5q58 0 112.5 -10.5t98 -24.5t69.5 -25l-8 -286h-100l-42 192q-3 16 -29.5 29.5t-64.5 22t-78 8.5q-103 0 -179.5 -53.5t-119 -152.5t-43.5 -236q-1 -130 26.5 -226.5t76.5 -159
t115 -93.5t142 -31q61 0 117 14.5t101.5 35.5t75.5 42l32 -66q-37 -37 -95.5 -69.5t-128 -52.5t-138.5 -20zM593 1320q-55 0 -83 33t-28 82t30.5 90t94.5 41h2q55 0 83 -33t28 -82t-30.5 -90t-94.5 -41h-2z" />
    <glyph glyph-name="Ccaron" unicode="&#x10c;" horiz-adv-x="1298" 
d="M754 -22q-163 0 -290 53t-214.5 152t-132.5 239t-45 314q0 167 54 308t151 245t226.5 161t280.5 57q67 0 130.5 -8t119.5 -19t100.5 -21.5t71.5 -15.5l-16 -326h-104l-44 232q-18 16 -58 30t-100.5 23t-139.5 9q-136 0 -245.5 -75.5t-174 -219t-64.5 -348.5
q0 -139 30 -264t91 -222t155 -152.5t222 -55.5q83 0 137 9.5t88.5 26.5t60.5 38l80 190l98 -16l-50 -268q-39 -1 -76 -13t-82 -26.5t-107.5 -25.5t-152.5 -11zM684 1616l-243 267l66 49l262 -200l262 200l66 -49l-243 -267h-170z" />
    <glyph glyph-name="ccaron" unicode="&#x10d;" horiz-adv-x="1004" 
d="M567 -22q-162 0 -272 75t-166.5 203t-57.5 286q-1 119 33 226.5t103 191t174 132t246 48.5q58 0 112.5 -10.5t98 -24.5t69.5 -25l-8 -286h-100l-42 192q-3 16 -29.5 29.5t-64.5 22t-78 8.5q-103 0 -179.5 -53.5t-119 -152.5t-43.5 -236q-1 -130 26.5 -226.5t76.5 -159
t115 -93.5t142 -31q61 0 117 14.5t101.5 35.5t75.5 42l32 -66q-37 -37 -95.5 -69.5t-128 -52.5t-138.5 -20zM512 1312l-227 368l66 50l250 -287l250 287l66 -50l-227 -368h-178z" />
    <glyph glyph-name="Dcaron" unicode="&#x10e;" horiz-adv-x="1491" 
d="M661 -16q-36 1 -75 3.5t-80.5 5.5t-84 5t-86.5 2h-256v86l172 18v1274l-160 22v86h242q61 0 119.5 4t116.5 8t118 4q194 0 333 -51t227 -145.5t130 -225.5t42 -292q0 -184 -55.5 -333.5t-157 -256t-240 -162.5t-305.5 -52zM685 82q161 2 287 79t198.5 225.5t72.5 365.5
q0 164 -38 286.5t-114 204t-190 122.5t-266 41q-45 0 -84.5 -2.5t-73.5 -5.5t-62 -4v-1296q48 -9 92.5 -12.5t88 -4t89.5 0.5zM661 1616l-243 267l66 49l262 -200l262 200l66 -49l-243 -267h-170z" />
    <glyph glyph-name="dcaron" unicode="&#x10f;" horiz-adv-x="1185" 
d="M508 -22q-85 0 -164 33t-140.5 101t-97.5 171.5t-36 244.5q0 171 69 309.5t197 220.5t304 82q59 0 113 -6.5t99 -17.5v396l-208 20v72l328 34h4l38 -28v-1520h122v-78q-39 -9 -87 -19.5t-105 -10.5q-40 0 -62 14t-22 72v70q-35 -39 -86.5 -76t-118 -60.5t-147.5 -23.5z
M574 104q63 0 118 21t96.5 51.5t63.5 59.5v736q-16 27 -82.5 47.5t-143.5 20.5q-107 0 -192 -50t-135.5 -157t-52.5 -277q-2 -162 43 -261.5t120.5 -145t164.5 -45.5zM1297 1194h-96l-6 12q5 41 8.5 87t3.5 100q0 82 -5 131t-17 74l10 34h148q11 -31 14.5 -68.5t3.5 -110.5
q0 -26 -8 -75.5t-22.5 -101t-33.5 -82.5z" />
    <glyph glyph-name="Dcroat" unicode="&#x110;" horiz-adv-x="1491" 
d="M661 -16q-36 1 -75 3.5t-80.5 5.5t-84 5t-86.5 2h-256v86l172 18v1274l-160 22v86h242q61 0 119.5 4t116.5 8t118 4q194 0 333 -51t227 -145.5t130 -225.5t42 -292q0 -184 -55.5 -333.5t-157 -256t-240 -162.5t-305.5 -52zM685 82q161 2 287 79t198.5 225.5t72.5 365.5
q0 164 -38 286.5t-114 204t-190 122.5t-266 41q-45 0 -84.5 -2.5t-73.5 -5.5t-62 -4v-1296q48 -9 92.5 -12.5t88 -4t89.5 0.5zM106 724v105h643v-105h-643z" />
    <glyph glyph-name="dcroat" unicode="&#x111;" horiz-adv-x="1185" 
d="M508 -22q-85 0 -164 33t-140.5 101t-97.5 171.5t-36 244.5q0 171 69 309.5t197 220.5t304 82q59 0 113 -6.5t99 -17.5v396l-208 20v72l328 34h4l38 -28v-1520h122v-78q-39 -9 -87 -19.5t-105 -10.5q-40 0 -62 14t-22 72v70q-35 -39 -86.5 -76t-118 -60.5t-147.5 -23.5z
M574 104q63 0 118 21t96.5 51.5t63.5 59.5v736q-16 27 -82.5 47.5t-143.5 20.5q-107 0 -192 -50t-135.5 -157t-52.5 -277q-2 -162 43 -261.5t120.5 -145t164.5 -45.5zM583 1362h559v-105h-559v105z" />
    <glyph glyph-name="Emacron" unicode="&#x112;" horiz-adv-x="1246" 
d="M251 104v1274l-168 22v86h1002l28 -294h-96l-62 192l-540 10v-582l368 6l26 166h100v-442h-100l-26 170l-368 6v-616l609 16l110 257l96 -30l-67 -345h-1084v86zM906 1769v-111h-526v111h526z" />
    <glyph glyph-name="emacron" unicode="&#x113;" horiz-adv-x="1018" 
d="M541 -22q-158 0 -265.5 74t-162 205.5t-54.5 302.5q0 129 38.5 235.5t107.5 183.5t162.5 119t203.5 42q177 0 277 -101t107 -295q0 -57 -2 -100t-10 -76h-712q0 -101 23 -188t68.5 -151.5t113.5 -100.5t157 -36q86 0 174 31t134 71l32 -74q-38 -39 -100.5 -71
t-138.5 -51.5t-153 -19.5zM233 662h542q3 16 4.5 43t1.5 45q0 123 -58 205.5t-192 82.5q-60 0 -111.5 -20t-91 -64t-64 -116t-31.5 -176zM844 1444v-122h-562v122h562z" />
    <glyph glyph-name="Ebreve" unicode="&#x114;" horiz-adv-x="1246" 
d="M251 104v1274l-168 22v86h1002l28 -294h-96l-62 192l-540 10v-582l368 6l26 166h100v-442h-100l-26 170l-368 6v-616l609 16l110 257l96 -30l-67 -345h-1084v86zM643 1626q-85 0 -149.5 31.5t-101 88.5t-36.5 131q0 10 1 21t3 21h90q0 -5 0.5 -13t1.5 -18q5 -33 24.5 -65
t59.5 -53.5t107 -21.5t107 21.5t59.5 53.5t24.5 65q2 10 2 18v13h90q2 -10 3 -21t1 -21q0 -74 -36.5 -131t-101 -88.5t-149.5 -31.5z" />
    <glyph glyph-name="ebreve" unicode="&#x115;" horiz-adv-x="1018" 
d="M541 -22q-158 0 -265.5 74t-162 205.5t-54.5 302.5q0 129 38.5 235.5t107.5 183.5t162.5 119t203.5 42q177 0 277 -101t107 -295q0 -57 -2 -100t-10 -76h-712q0 -101 23 -188t68.5 -151.5t113.5 -100.5t157 -36q86 0 174 31t134 71l32 -74q-38 -39 -100.5 -71
t-138.5 -51.5t-153 -19.5zM233 662h542q3 16 4.5 43t1.5 45q0 123 -58 205.5t-192 82.5q-60 0 -111.5 -20t-91 -64t-64 -116t-31.5 -176zM563 1299q-100 0 -171 38.5t-108.5 103.5t-37.5 144q0 10 1 21t3 21h90q0 -5 0.5 -13t1.5 -18q6 -38 26.5 -77.5t66.5 -66t128 -26.5
t128 26.5t66.5 66t26.5 77.5q2 10 2 18v13h90q2 -10 3 -21t1 -21q0 -79 -37.5 -144t-108.5 -103.5t-171 -38.5z" />
    <glyph glyph-name="Edotaccent" unicode="&#x116;" horiz-adv-x="1246" 
d="M251 104v1274l-168 22v86h1002l28 -294h-96l-62 192l-540 10v-582l368 6l26 166h100v-442h-100l-26 170l-368 6v-616l609 16l110 257l96 -30l-67 -345h-1084v86zM635 1632q-55 0 -83 33t-28 82t30.5 90t94.5 41h2q55 0 83 -33t28 -82t-30.5 -90t-94.5 -41h-2z" />
    <glyph glyph-name="edotaccent" unicode="&#x117;" horiz-adv-x="1018" 
d="M541 -22q-158 0 -265.5 74t-162 205.5t-54.5 302.5q0 129 38.5 235.5t107.5 183.5t162.5 119t203.5 42q177 0 277 -101t107 -295q0 -57 -2 -100t-10 -76h-712q0 -101 23 -188t68.5 -151.5t113.5 -100.5t157 -36q86 0 174 31t134 71l32 -74q-38 -39 -100.5 -71
t-138.5 -51.5t-153 -19.5zM233 662h542q3 16 4.5 43t1.5 45q0 123 -58 205.5t-192 82.5q-60 0 -111.5 -20t-91 -64t-64 -116t-31.5 -176zM555 1320q-55 0 -83 33t-28 82t30.5 90t94.5 41h2q55 0 83 -33t28 -82t-30.5 -90t-94.5 -41h-2z" />
    <glyph glyph-name="Eogonek" unicode="&#x118;" horiz-adv-x="1246" 
d="M251 104v1274l-168 22v86h1002l28 -294h-96l-62 192l-540 10v-582l368 6l26 166h100v-442h-100l-26 170l-368 6v-616l609 16l110 257l96 -30l-67 -345h-1084v86zM875 -496q-61 0 -112 21.5t-81.5 63.5t-30.5 102q0 71 35 130t87 105t102 76l60 8l76 -8
q-72 -30 -118.5 -78t-69 -101t-22.5 -98q0 -52 25.5 -81t82.5 -29q52 0 98 18.5t84 47.5l30 -84q-29 -36 -94.5 -64.5t-151.5 -28.5z" />
    <glyph glyph-name="eogonek" unicode="&#x119;" horiz-adv-x="1018" 
d="M541 -22q-158 0 -265.5 74t-162 205.5t-54.5 302.5q0 129 38.5 235.5t107.5 183.5t162.5 119t203.5 42q177 0 277 -101t107 -295q0 -57 -2 -100t-10 -76h-712q0 -101 23 -188t68.5 -151.5t113.5 -100.5t157 -36q86 0 174 31t134 71l32 -74q-38 -39 -100.5 -71
t-138.5 -51.5t-153 -19.5zM233 662h542q3 16 4.5 43t1.5 45q0 123 -58 205.5t-192 82.5q-60 0 -111.5 -20t-91 -64t-64 -116t-31.5 -176zM618 -465q-46 0 -98 16t-89 56t-37 110q0 49 22.5 96t60 88.5t84.5 75.5t96 56l60 8l76 -8q-68 -30 -124.5 -73t-90.5 -96t-34 -113
q0 -52 35.5 -78.5t92.5 -26.5q52 0 95 17t89 46l30 -81q-34 -24 -74.5 -45t-88 -34.5t-105.5 -13.5z" />
    <glyph glyph-name="Ecaron" unicode="&#x11a;" horiz-adv-x="1246" 
d="M251 104v1274l-168 22v86h1002l28 -294h-96l-62 192l-540 10v-582l368 6l26 166h100v-442h-100l-26 170l-368 6v-616l609 16l110 257l96 -30l-67 -345h-1084v86zM558 1616l-243 267l66 49l262 -200l262 200l66 -49l-243 -267h-170z" />
    <glyph glyph-name="ecaron" unicode="&#x11b;" horiz-adv-x="1018" 
d="M541 -22q-158 0 -265.5 74t-162 205.5t-54.5 302.5q0 129 38.5 235.5t107.5 183.5t162.5 119t203.5 42q177 0 277 -101t107 -295q0 -57 -2 -100t-10 -76h-712q0 -101 23 -188t68.5 -151.5t113.5 -100.5t157 -36q86 0 174 31t134 71l32 -74q-38 -39 -100.5 -71
t-138.5 -51.5t-153 -19.5zM233 662h542q3 16 4.5 43t1.5 45q0 123 -58 205.5t-192 82.5q-60 0 -111.5 -20t-91 -64t-64 -116t-31.5 -176zM474 1312l-227 368l66 50l250 -287l250 287l66 -50l-227 -368h-178z" />
    <glyph glyph-name="Gcircumflex" unicode="&#x11c;" horiz-adv-x="1441" 
d="M751 -22q-166 0 -296 57t-219.5 158.5t-136 236t-46.5 288.5q0 188 52.5 334t149.5 246.5t233.5 152t304.5 51.5q77 0 152 -8.5t140.5 -20.5t115 -21.5t74.5 -11.5l-16 -332h-104l-44 230q-15 12 -58.5 28t-113.5 28t-164 12q-170 0 -289.5 -71t-182 -212.5t-62.5 -352.5
q0 -132 28.5 -257t90.5 -224.5t161.5 -158.5t241.5 -59q71 0 134 12t119 33.5t107 49.5v456l-278 20v106h568v-106l-122 -20v-542q-41 -1 -83 -12t-89 -26t-101.5 -29.5t-120.5 -24.5t-146 -10zM489 1604l-66 50l243 276h170l243 -276l-66 -50l-262 210z" />
    <glyph glyph-name="gcircumflex" unicode="&#x11d;" horiz-adv-x="1186" 
d="M548 -540q-130 0 -220.5 22t-146 62t-80.5 95t-25 121q0 65 26 119.5t68.5 95.5t91.5 65q-45 24 -69.5 65t-24.5 101q0 45 22.5 88t58.5 79t78 58q-91 44 -145.5 124.5t-54.5 196.5q0 122 65.5 209t168 133t212.5 46q87 0 164 -20t134 -62q21 20 84 51t144 31h57v-148
h-219q18 -25 31 -56.5t20 -68t7 -75.5q0 -124 -60.5 -215.5t-161.5 -141.5t-222 -50q-40 0 -77.5 4.5t-72.5 13.5q-36 -28 -61.5 -65t-25.5 -75q0 -78 50 -100.5t170 -22.5h236q128 0 208.5 -34t118 -95.5t37.5 -144.5q0 -82 -45 -155t-125 -129.5t-186.5 -89t-229.5 -32.5z
M558 -438q106 0 203 31t159 88.5t62 138.5q0 56 -18 96.5t-72 62t-162 21.5h-248q-40 0 -77 2.5t-69 9.5q-48 -39 -73 -94t-25 -126q0 -72 29 -123.5t98.5 -79t192.5 -27.5zM571 483q131 0 192.5 72.5t61.5 214.5q0 93 -30.5 153t-89.5 89.5t-144 29.5q-73 0 -133 -25
t-95.5 -83.5t-35.5 -159.5q0 -82 28 -148t88.5 -104.5t157.5 -38.5zM320 1264l-66 50l237 370h178l237 -370l-66 -50l-260 279z" />
    <glyph glyph-name="Gbreve" unicode="&#x11e;" horiz-adv-x="1441" 
d="M751 -22q-166 0 -296 57t-219.5 158.5t-136 236t-46.5 288.5q0 188 52.5 334t149.5 246.5t233.5 152t304.5 51.5q77 0 152 -8.5t140.5 -20.5t115 -21.5t74.5 -11.5l-16 -332h-104l-44 230q-15 12 -58.5 28t-113.5 28t-164 12q-170 0 -289.5 -71t-182 -212.5t-62.5 -352.5
q0 -132 28.5 -257t90.5 -224.5t161.5 -158.5t241.5 -59q71 0 134 12t119 33.5t107 49.5v456l-278 20v106h568v-106l-122 -20v-542q-41 -1 -83 -12t-89 -26t-101.5 -29.5t-120.5 -24.5t-146 -10zM751 1626q-85 0 -149.5 31.5t-101 88.5t-36.5 131q0 10 1 21t3 21h90
q0 -5 0.5 -13t1.5 -18q5 -33 24.5 -65t59.5 -53.5t107 -21.5t107 21.5t59.5 53.5t24.5 65q2 10 2 18v13h90q2 -10 3 -21t1 -21q0 -74 -36.5 -131t-101 -88.5t-149.5 -31.5z" />
    <glyph glyph-name="gbreve" unicode="&#x11f;" horiz-adv-x="1186" 
d="M548 -540q-130 0 -220.5 22t-146 62t-80.5 95t-25 121q0 65 26 119.5t68.5 95.5t91.5 65q-45 24 -69.5 65t-24.5 101q0 45 22.5 88t58.5 79t78 58q-91 44 -145.5 124.5t-54.5 196.5q0 122 65.5 209t168 133t212.5 46q87 0 164 -20t134 -62q21 20 84 51t144 31h57v-148
h-219q18 -25 31 -56.5t20 -68t7 -75.5q0 -124 -60.5 -215.5t-161.5 -141.5t-222 -50q-40 0 -77.5 4.5t-72.5 13.5q-36 -28 -61.5 -65t-25.5 -75q0 -78 50 -100.5t170 -22.5h236q128 0 208.5 -34t118 -95.5t37.5 -144.5q0 -82 -45 -155t-125 -129.5t-186.5 -89t-229.5 -32.5z
M558 -438q106 0 203 31t159 88.5t62 138.5q0 56 -18 96.5t-72 62t-162 21.5h-248q-40 0 -77 2.5t-69 9.5q-48 -39 -73 -94t-25 -126q0 -72 29 -123.5t98.5 -79t192.5 -27.5zM571 483q131 0 192.5 72.5t61.5 214.5q0 93 -30.5 153t-89.5 89.5t-144 29.5q-73 0 -133 -25
t-95.5 -83.5t-35.5 -159.5q0 -82 28 -148t88.5 -104.5t157.5 -38.5zM580 1299q-100 0 -171 38.5t-108.5 103.5t-37.5 144q0 10 1 21t3 21h90q0 -5 0.5 -13t1.5 -18q6 -38 26.5 -77.5t66.5 -66t128 -26.5t128 26.5t66.5 66t26.5 77.5q2 10 2 18v13h90q2 -10 3 -21t1 -21
q0 -79 -37.5 -144t-108.5 -103.5t-171 -38.5z" />
    <glyph glyph-name="Gdotaccent" unicode="&#x120;" horiz-adv-x="1441" 
d="M751 -22q-166 0 -296 57t-219.5 158.5t-136 236t-46.5 288.5q0 188 52.5 334t149.5 246.5t233.5 152t304.5 51.5q77 0 152 -8.5t140.5 -20.5t115 -21.5t74.5 -11.5l-16 -332h-104l-44 230q-15 12 -58.5 28t-113.5 28t-164 12q-170 0 -289.5 -71t-182 -212.5t-62.5 -352.5
q0 -132 28.5 -257t90.5 -224.5t161.5 -158.5t241.5 -59q71 0 134 12t119 33.5t107 49.5v456l-278 20v106h568v-106l-122 -20v-542q-41 -1 -83 -12t-89 -26t-101.5 -29.5t-120.5 -24.5t-146 -10zM743 1632q-55 0 -83 33t-28 82t30.5 90t94.5 41h2q55 0 83 -33t28 -82
t-30.5 -90t-94.5 -41h-2z" />
    <glyph glyph-name="gdotaccent" unicode="&#x121;" horiz-adv-x="1186" 
d="M548 -540q-130 0 -220.5 22t-146 62t-80.5 95t-25 121q0 65 26 119.5t68.5 95.5t91.5 65q-45 24 -69.5 65t-24.5 101q0 45 22.5 88t58.5 79t78 58q-91 44 -145.5 124.5t-54.5 196.5q0 122 65.5 209t168 133t212.5 46q87 0 164 -20t134 -62q21 20 84 51t144 31h57v-148
h-219q18 -25 31 -56.5t20 -68t7 -75.5q0 -124 -60.5 -215.5t-161.5 -141.5t-222 -50q-40 0 -77.5 4.5t-72.5 13.5q-36 -28 -61.5 -65t-25.5 -75q0 -78 50 -100.5t170 -22.5h236q128 0 208.5 -34t118 -95.5t37.5 -144.5q0 -82 -45 -155t-125 -129.5t-186.5 -89t-229.5 -32.5z
M558 -438q106 0 203 31t159 88.5t62 138.5q0 56 -18 96.5t-72 62t-162 21.5h-248q-40 0 -77 2.5t-69 9.5q-48 -39 -73 -94t-25 -126q0 -72 29 -123.5t98.5 -79t192.5 -27.5zM571 483q131 0 192.5 72.5t61.5 214.5q0 93 -30.5 153t-89.5 89.5t-144 29.5q-73 0 -133 -25
t-95.5 -83.5t-35.5 -159.5q0 -82 28 -148t88.5 -104.5t157.5 -38.5zM572 1320q-55 0 -83 33t-28 82t30.5 90t94.5 41h2q55 0 83 -33t28 -82t-30.5 -90t-94.5 -41h-2z" />
    <glyph glyph-name="uni0122" unicode="&#x122;" horiz-adv-x="1441" 
d="M751 -22q-166 0 -296 57t-219.5 158.5t-136 236t-46.5 288.5q0 188 52.5 334t149.5 246.5t233.5 152t304.5 51.5q77 0 152 -8.5t140.5 -20.5t115 -21.5t74.5 -11.5l-16 -332h-104l-44 230q-15 12 -58.5 28t-113.5 28t-164 12q-170 0 -289.5 -71t-182 -212.5t-62.5 -352.5
q0 -132 28.5 -257t90.5 -224.5t161.5 -158.5t241.5 -59q71 0 134 12t119 33.5t107 49.5v456l-278 20v106h568v-106l-122 -20v-542q-41 -1 -83 -12t-89 -26t-101.5 -29.5t-120.5 -24.5t-146 -10zM850 -288q0 -71 -33 -125.5t-69.5 -86.5t-47.5 -36h-2l-54 38v12q30 15 49 54
t19 70q0 30 -13.5 46t-28.5 26q-15 11 -26.5 27t-11.5 47q0 37 17 56t39 25.5t36 6.5h4q56 0 89 -41t33 -119z" />
    <glyph glyph-name="uni0123" unicode="&#x123;" horiz-adv-x="1186" 
d="M548 -540q-130 0 -220.5 22t-146 62t-80.5 95t-25 121q0 65 26 119.5t68.5 95.5t91.5 65q-45 24 -69.5 65t-24.5 101q0 45 22.5 88t58.5 79t78 58q-91 44 -145.5 124.5t-54.5 196.5q0 122 65.5 209t168 133t212.5 46q87 0 164 -20t134 -62q21 20 84 51t144 31h57v-148
h-219q18 -25 31 -56.5t20 -68t7 -75.5q0 -124 -60.5 -215.5t-161.5 -141.5t-222 -50q-40 0 -77.5 4.5t-72.5 13.5q-36 -28 -61.5 -65t-25.5 -75q0 -78 50 -100.5t170 -22.5h236q128 0 208.5 -34t118 -95.5t37.5 -144.5q0 -82 -45 -155t-125 -129.5t-186.5 -89t-229.5 -32.5z
M558 -438q106 0 203 31t159 88.5t62 138.5q0 56 -18 96.5t-72 62t-162 21.5h-248q-40 0 -77 2.5t-69 9.5q-48 -39 -73 -94t-25 -126q0 -72 29 -123.5t98.5 -79t192.5 -27.5zM571 483q131 0 192.5 72.5t61.5 214.5q0 93 -30.5 153t-89.5 89.5t-144 29.5q-73 0 -133 -25
t-95.5 -83.5t-35.5 -159.5q0 -82 28 -148t88.5 -104.5t157.5 -38.5zM593 1280q-55 0 -88.5 41t-33.5 119q0 81 33 139.5t69.5 91.5t47.5 37h2l54 -38v-12q-30 -15 -49 -56t-19 -88q0 -30 13.5 -45.5t28.5 -26.5q15 -10 26.5 -26t11.5 -48q0 -37 -17 -56t-39 -25.5t-36 -6.5
h-4z" />
    <glyph glyph-name="Hcircumflex" unicode="&#x124;" horiz-adv-x="1582" 
d="M245 104v1274l-161 22v86h499v-86l-174 -22v-562h764v562l-171 22v86h496v-86l-161 -22v-1274l166 -18v-86h-503v86l173 18v606h-764v-606l176 -18v-86h-506v86zM529 1604l-66 50l243 276h170l243 -276l-66 -50l-262 210z" />
    <glyph glyph-name="hcircumflex" unicode="&#x125;" horiz-adv-x="1319" 
d="M229 100v1412l-178 18v74l296 34h4l40 -26v-476l-6 -166q37 35 104.5 73.5t148 65.5t155.5 27q127 0 196.5 -48.5t96.5 -152.5t27 -269v-565l150 -15v-86h-446v86l134 15v567q0 117 -15.5 193.5t-64.5 113.5t-148 37q-56 0 -117 -20t-117.5 -50.5t-97.5 -61.5v-778
l146 -16v-86h-442v86zM42 1720l-66 50l243 276h170l243 -276l-66 -50l-262 210z" />
    <glyph glyph-name="Hbar" unicode="&#x126;" horiz-adv-x="1602" 
d="M255 104v1274l-164 22v86h502v-86l-174 -22v-662h764v662l-168 22v86h490v-86l-158 -22v-1274l166 -18v-86h-500v86l170 18v507h-764v-507l176 -18v-86h-506v86zM1503 1110v-99h-1411v99h1411z" />
    <glyph glyph-name="hbar" unicode="&#x127;" horiz-adv-x="1319" 
d="M229 100v1412l-178 18v74l296 34h4l40 -26v-476l-6 -166q37 35 104.5 73.5t148 65.5t155.5 27q127 0 196.5 -48.5t96.5 -152.5t27 -269v-565l150 -15v-86h-446v86l134 15v567q0 117 -15.5 193.5t-64.5 113.5t-148 37q-56 0 -117 -20t-117.5 -50.5t-97.5 -61.5v-778
l146 -16v-86h-442v86zM78 1362h559v-105h-559v105z" />
    <glyph glyph-name="Itilde" unicode="&#x128;" horiz-adv-x="711" 
d="M273 104v1274l-194 22v86h553v-86l-194 -22v-1274l194 -20v-84h-553v86zM468 1620q-49 0 -80.5 21t-54 48.5t-44.5 48.5t-52 21q-40 0 -62 -37.5t-36 -87.5l-73 31q3 99 55 153.5t123 54.5q50 0 81 -21t53.5 -49t44.5 -49t52 -21q40 0 62.5 38t35.5 88l73 -31
q-3 -100 -55 -154t-123 -54z" />
    <glyph glyph-name="itilde" unicode="&#x129;" horiz-adv-x="624" 
d="M62 0v86l176 16v876l-156 34v90l274 32h4l40 -32v-1002l174 -14v-86h-512zM-11 1329q20 94 71.5 148t129.5 54q57 0 92 -21t59.5 -48t48 -48t56.5 -21q44 0 68.5 31t40.5 83l87 -42q-19 -94 -72 -148t-131 -54q-54 0 -88 21t-58 48t-49 48t-61 21q-44 0 -68.5 -31
t-39.5 -83z" />
    <glyph glyph-name="Imacron" unicode="&#x12a;" horiz-adv-x="711" 
d="M273 104v1274l-194 22v86h553v-86l-194 -22v-1274l194 -20v-84h-553v86zM619 1769v-111h-526v111h526z" />
    <glyph glyph-name="imacron" unicode="&#x12b;" horiz-adv-x="624" 
d="M62 0v86l176 16v876l-156 34v90l274 32h4l40 -32v-1002l174 -14v-86h-512zM596 1444v-122h-562v122h562z" />
    <glyph glyph-name="Ibreve" unicode="&#x12c;" horiz-adv-x="711" 
d="M273 104v1274l-194 22v86h553v-86l-194 -22v-1274l194 -20v-84h-553v86zM356 1626q-90 0 -155.5 31.5t-101 88.5t-35.5 131q0 10 1 21t3 21h86q0 -5 0.5 -13t1.5 -18q5 -33 24 -65t61 -53.5t115 -21.5t115 21.5t61.5 53.5t23.5 65q2 10 2 18v13h86q2 -10 3 -21t1 -21
q0 -74 -35.5 -131t-100.5 -88.5t-156 -31.5z" />
    <glyph glyph-name="ibreve" unicode="&#x12d;" horiz-adv-x="624" 
d="M62 0v86l176 16v876l-156 34v90l274 32h4l40 -32v-1002l174 -14v-86h-512zM315 1304q-95 0 -162.5 38.5t-103 103.5t-35.5 144q0 10 1 21t3 21h85q0 -5 0.5 -13t1.5 -18q6 -38 25.5 -77.5t63 -66t121.5 -26.5t121.5 26.5t63.5 66t25 77.5q2 10 2 18v13h85q2 -10 3 -21
t1 -21q0 -79 -35.5 -144t-103 -103.5t-162.5 -38.5z" />
    <glyph glyph-name="Iogonek" unicode="&#x12e;" horiz-adv-x="711" 
d="M273 104v1274l-194 22v86h553v-86l-194 -22v-1274l194 -20v-84h-553v86zM374 -496q-61 0 -112 21.5t-81.5 63.5t-30.5 102q0 71 35 130t87 105t102 76l60 8l76 -8q-72 -30 -118.5 -78t-69 -101t-22.5 -98q0 -52 25.5 -81t82.5 -29q52 0 98 18.5t84 47.5l30 -84
q-29 -36 -94.5 -64.5t-151.5 -28.5z" />
    <glyph glyph-name="iogonek" unicode="&#x12f;" horiz-adv-x="624" 
d="M62 0v86l176 16v876l-156 34v90l274 32h4l40 -32v-1002l174 -14v-86h-512zM307 1320q-55 0 -83 33t-28 82t30.5 90t94.5 41h2q55 0 83 -33t28 -82t-30.5 -90t-94.5 -41h-2zM294 -496q-46 0 -98 16t-89 56t-37 110q0 49 22.5 96t60 88.5t84.5 75.5t96 56l60 8l76 -8
q-68 -30 -124.5 -73t-90.5 -96t-34 -113q0 -52 35.5 -78.5t92.5 -26.5q52 0 95 17t89 46l30 -81q-34 -24 -74.5 -45t-88 -34.5t-105.5 -13.5z" />
    <glyph glyph-name="Idotaccent" unicode="&#x130;" horiz-adv-x="711" 
d="M273 104v1274l-194 22v86h553v-86l-194 -22v-1274l194 -20v-84h-553v86zM348 1632q-55 0 -83 33t-28 82t30.5 90t94.5 41h2q55 0 83 -33t28 -82t-30.5 -90t-94.5 -41h-2z" />
    <glyph glyph-name="dotlessi" unicode="&#x131;" horiz-adv-x="624" 
d="M62 0v86l176 16v876l-156 34v90l274 32h4l40 -32v-1002l174 -14v-86h-512z" />
    <glyph glyph-name="IJ" unicode="&#x132;" horiz-adv-x="1401" 
d="M273 104v1274l-194 22v86h553v-86l-194 -22v-1274l194 -20v-84h-553v86zM668 -274q59 16 112.5 51t94 86.5t61.5 118.5q18 57 26.5 121t11 159t2.5 244v870l-202 24v86h558v-86l-192 -24v-826q0 -166 -0.5 -290.5t-19.5 -217.5q-23 -115 -87 -195.5t-149.5 -128.5
t-171.5 -64z" />
    <glyph glyph-name="ij" unicode="&#x133;" horiz-adv-x="1184" 
d="M62 0v86l176 16v876l-156 34v90l274 32h4l40 -32v-1002l174 -14v-86h-512zM307 1320q-55 0 -83 33t-28 82t30.5 90t94.5 41h2q55 0 83 -33t28 -82t-30.5 -90t-94.5 -41h-2zM660 -486q-10 -1 -35 -0.5t-49 2.5t-30 6l-8 82q15 -1 46.5 3.5t67.5 16.5q61 19 95 79
t47.5 149.5t13.5 197.5l-2 920l-160 36v96l278 32h4l38 -32v-1090q0 -124 -20.5 -215t-60.5 -151.5t-96.5 -92.5t-128.5 -39zM864 1320q-55 0 -83 33t-28 82t30.5 90t94.5 41h2q55 0 83 -33t28 -82t-30.5 -90t-94.5 -41h-2z" />
    <glyph glyph-name="Jcircumflex" unicode="&#x134;" horiz-adv-x="711" 
d="M-22 -274q59 16 112.5 51t94 86.5t61.5 118.5q18 57 26.5 121t11 159t2.5 244v870l-202 24v86h558v-86l-192 -24v-826q0 -166 -0.5 -290.5t-19.5 -217.5q-23 -115 -87 -195.5t-149.5 -128.5t-171.5 -64zM107 1604l-66 50l243 276h170l243 -276l-66 -50l-262 210z" />
    <glyph glyph-name="jcircumflex" unicode="&#x135;" horiz-adv-x="624" 
d="M100 -486q-10 -1 -35 -0.5t-49 2.5t-30 6l-8 82q15 -1 46.5 3.5t67.5 16.5q61 19 95 79t47.5 149.5t13.5 197.5l-2 920l-160 36v96l278 32h4l38 -32v-1090q0 -124 -20.5 -215t-60.5 -151.5t-96.5 -92.5t-128.5 -39zM52 1264l-66 50l237 370h178l237 -370l-66 -50
l-260 279z" />
    <glyph glyph-name="uni0136" unicode="&#x136;" horiz-adv-x="1401" 
d="M79 0v86l172 18v1274l-168 22v86h504v-86l-172 -22v-727l626 727l-170 22v86h464v-86l-146 -22l-461 -514q51 -43 107 -114.5t114 -156t112.5 -169.5t102.5 -156t84.5 -115t56.5 -47l94 -22v-84h-240q-26 0 -62 42t-79 111t-91 153t-98 169t-99.5 159t-96.5 121
l-218 -247v-404l188 -20v-84h-524zM850 -288q0 -71 -33 -125.5t-69.5 -86.5t-47.5 -36h-2l-54 38v12q30 15 49 54t19 70q0 30 -13.5 46t-28.5 26q-15 11 -26.5 27t-11.5 47q0 37 17 56t39 25.5t36 6.5h4q56 0 89 -41t33 -119z" />
    <glyph glyph-name="uni0137" unicode="&#x137;" horiz-adv-x="1249" 
d="M83 0v86l132 16v1410l-164 18v74l284 34h2l38 -26v-1010l-4 -126l486 526l-156 28v80h472v-80l-154 -28l-318 -336l398 -566l132 -14v-86h-458v86l138 16l-314 474l-226 -236l4 -84v-154l156 -16v-86h-448zM734 -288q0 -71 -33 -125.5t-69.5 -86.5t-47.5 -36h-2l-54 38
v12q30 15 49 54t19 70q0 30 -13.5 46t-28.5 26q-15 11 -26.5 27t-11.5 47q0 37 17 56t39 25.5t36 6.5h4q56 0 89 -41t33 -119z" />
    <glyph glyph-name="kgreenlandic" unicode="&#x138;" horiz-adv-x="1274" 
d="M228 98v880l-158 34v90l278 32h4l38 -32v-424l-6 -202l508 524l-164 26v84h472v-84l-138 -18l-346 -360l404 -550l136 -14v-84h-470v82l144 16l-320 456l-226 -204l6 -100v-152l164 -16v-82h-492v84z" />
    <glyph glyph-name="Lacute" unicode="&#x139;" horiz-adv-x="1225" 
d="M79 0v86l172 18v1274l-168 22v86h532v-86l-200 -22v-1274l560 16l112 312l96 -16l-74 -416h-1030zM324 1600l-64 54l240 312l136 -110q-25 -33 -63 -71.5t-82 -75.5t-87 -66t-78 -43h-2z" />
    <glyph glyph-name="lacute" unicode="&#x13a;" horiz-adv-x="599" 
d="M213 102v1410l-170 18v74l290 34h2l38 -26v-1512l190 -14v-86h-526v86zM279 1683l-64 54l240 312l136 -110q-25 -33 -63 -71.5t-82 -75.5t-87 -66t-78 -43h-2z" />
    <glyph glyph-name="uni013B" unicode="&#x13b;" horiz-adv-x="1225" 
d="M79 0v86l172 18v1274l-168 22v86h532v-86l-200 -22v-1274l560 16l112 312l96 -16l-74 -416h-1030zM722 -288q0 -71 -33 -125.5t-69.5 -86.5t-47.5 -36h-2l-54 38v12q30 15 49 54t19 70q0 30 -13.5 46t-28.5 26q-15 11 -26.5 27t-11.5 47q0 37 17 56t39 25.5t36 6.5h4
q56 0 89 -41t33 -119z" />
    <glyph glyph-name="uni013C" unicode="&#x13c;" horiz-adv-x="599" 
d="M213 102v1410l-170 18v74l290 34h2l38 -26v-1512l190 -14v-86h-526v86zM409 -288q0 -71 -33 -125.5t-69.5 -86.5t-47.5 -36h-2l-54 38v12q30 15 49 54t19 70q0 30 -13.5 46t-28.5 26q-15 11 -26.5 27t-11.5 47q0 37 17 56t39 25.5t36 6.5h4q56 0 89 -41t33 -119z" />
    <glyph glyph-name="Lcaron" unicode="&#x13d;" horiz-adv-x="1225" 
d="M79 0v86l172 18v1274l-168 22v86h532v-86l-200 -22v-1274l560 16l112 312l96 -16l-74 -416h-1030zM973 1089h-96l-6 12q5 41 8.5 87t3.5 100q0 82 -5 131t-17 74l10 34h148q11 -31 14.5 -68.5t3.5 -110.5q0 -26 -8 -75.5t-22.5 -101t-33.5 -82.5z" />
    <glyph glyph-name="lcaron" unicode="&#x13e;" horiz-adv-x="599" 
d="M213 102v1410l-170 18v74l290 34h2l38 -26v-1512l190 -14v-86h-526v86zM601 1194h-96l-6 12q5 41 8.5 87t3.5 100q0 82 -5 131t-17 74l10 34h148q11 -31 14.5 -68.5t3.5 -110.5q0 -26 -8 -75.5t-22.5 -101t-33.5 -82.5z" />
    <glyph glyph-name="Ldot" unicode="&#x13f;" horiz-adv-x="1304" 
d="M79 0v86l172 18v1274l-168 22v86h532v-86l-200 -22v-1274l560 16l112 312l96 -16l-74 -416h-1030zM1216 695q-45 0 -77.5 30.5t-32.5 81.5q0 57 40.5 94.5t89.5 37.5q57 0 82.5 -34t25.5 -78q0 -58 -39 -95t-89 -37z" />
    <glyph glyph-name="ldot" unicode="&#x140;" horiz-adv-x="740" 
d="M213 102v1410l-170 18v74l290 34h2l38 -26v-1512l190 -14v-86h-526v86zM652 695q-45 0 -77.5 30.5t-32.5 81.5q0 57 40.5 94.5t89.5 37.5q57 0 82.5 -34t25.5 -78q0 -58 -39 -95t-89 -37z" />
    <glyph glyph-name="Lslash" unicode="&#x141;" horiz-adv-x="1225" 
d="M79 0v86l172 18v1274l-168 22v86h532v-86l-200 -22v-1274l560 16l112 312l96 -16l-74 -416h-1030zM83 605v125l210 104l105 47l472 229v-131l-474 -227l-103 -48z" />
    <glyph glyph-name="lslash" unicode="&#x142;" horiz-adv-x="664" 
d="M74 0v86l176 16v727l-208 -89v117l208 89v566l-170 18v74l290 34h2l38 -26v-601l213 99v-120l-213 -97v-793l190 -14v-86h-526z" />
    <glyph glyph-name="Nacute" unicode="&#x143;" horiz-adv-x="1526" 
d="M69 0v86l160 20v1272q-26 4 -53 7.5t-53.5 7.5t-53.5 7v86h322l708 -1026l114 -200v1118l-176 22v86h456v-86l-164 -22v-1378h-104l-716 1030l-164 266v-1192l182 -18v-86h-458zM779 1600l-64 54l240 312l136 -110q-25 -33 -63 -71.5t-82 -75.5t-87 -66t-78 -43h-2z" />
    <glyph glyph-name="nacute" unicode="&#x144;" horiz-adv-x="1306" 
d="M216 102v876l-154 34v90l254 32h6l38 -32v-88l-2 -50q44 38 114.5 78t151.5 67t156 27q130 0 199 -50.5t95 -154.5t26 -265v-566l150 -14v-86h-446v86l134 14v568q0 116 -16 192.5t-64.5 114t-145.5 37.5q-57 0 -118.5 -20t-118 -51t-97.5 -63v-776l146 -16v-86h-442v86z
M582 1298l-64 54l310 386l136 -110q-19 -32 -66.5 -80.5t-107 -100t-115 -92t-91.5 -57.5h-2z" />
    <glyph glyph-name="uni0145" unicode="&#x145;" horiz-adv-x="1526" 
d="M69 0v86l160 20v1272q-26 4 -53 7.5t-53.5 7.5t-53.5 7v86h322l708 -1026l114 -200v1118l-176 22v86h456v-86l-164 -22v-1378h-104l-716 1030l-164 266v-1192l182 -18v-86h-458zM872 -288q0 -71 -33 -125.5t-69.5 -86.5t-47.5 -36h-2l-54 38v12q30 15 49 54t19 70
q0 30 -13.5 46t-28.5 26q-15 11 -26.5 27t-11.5 47q0 37 17 56t39 25.5t36 6.5h4q56 0 89 -41t33 -119z" />
    <glyph glyph-name="uni0146" unicode="&#x146;" horiz-adv-x="1306" 
d="M216 102v876l-154 34v90l254 32h6l38 -32v-88l-2 -50q44 38 114.5 78t151.5 67t156 27q130 0 199 -50.5t95 -154.5t26 -265v-566l150 -14v-86h-446v86l134 14v568q0 116 -16 192.5t-64.5 114t-145.5 37.5q-57 0 -118.5 -20t-118 -51t-97.5 -63v-776l146 -16v-86h-442v86z
M770 -288q0 -71 -33 -125.5t-69.5 -86.5t-47.5 -36h-2l-54 38v12q30 15 49 54t19 70q0 30 -13.5 46t-28.5 26q-15 11 -26.5 27t-11.5 47q0 37 17 56t39 25.5t36 6.5h4q56 0 89 -41t33 -119z" />
    <glyph glyph-name="Ncaron" unicode="&#x147;" horiz-adv-x="1526" 
d="M69 0v86l160 20v1272q-26 4 -53 7.5t-53.5 7.5t-53.5 7v86h322l708 -1026l114 -200v1118l-176 22v86h456v-86l-164 -22v-1378h-104l-716 1030l-164 266v-1192l182 -18v-86h-458zM698 1616l-243 267l66 49l262 -200l262 200l66 -49l-243 -267h-170z" />
    <glyph glyph-name="ncaron" unicode="&#x148;" horiz-adv-x="1306" 
d="M216 102v876l-154 34v90l254 32h6l38 -32v-88l-2 -50q44 38 114.5 78t151.5 67t156 27q130 0 199 -50.5t95 -154.5t26 -265v-566l150 -14v-86h-446v86l134 14v568q0 116 -16 192.5t-64.5 114t-145.5 37.5q-57 0 -118.5 -20t-118 -51t-97.5 -63v-776l146 -16v-86h-442v86z
M546 1312l-227 368l66 50l250 -287l250 287l66 -50l-227 -368h-178z" />
    <glyph glyph-name="Eng" unicode="&#x14a;" horiz-adv-x="1497" 
d="M882 -431l-8 83q15 -3 46.5 2.5t67.5 16.5q46 14 82 58t61.5 106t38.5 132t13 137v941q0 121 -26 192.5t-84 103t-154 31.5q-99 0 -190.5 -27t-172 -75.5t-147.5 -112.5v-1053l176 -18v-86h-506v86l166 18v1274l-154 22v86l264 20h16l38 -32v-90l-10 -120q89 77 180 131
t186 82.5t194 28.5q129 0 215 -42.5t129.5 -143.5t43.5 -277v-899q0 -119 -22 -224.5t-68 -186t-117 -126.5t-170 -46q-22 0 -50.5 1t-37.5 7z" />
    <glyph glyph-name="eng" unicode="&#x14b;" horiz-adv-x="1288" 
d="M794 -501q-13 0 -38 0.5t-47.5 2t-28.5 5.5l-8 83q15 -3 46.5 2.5t67.5 16.5q46 14 75.5 46t46 79.5t23.5 110.5t7 140v683q0 117 -16 193t-64 113.5t-144 37.5q-58 0 -120 -20t-118.5 -50.5t-97.5 -61.5v-778l146 -16v-86h-442v86l134 16v876l-154 34v90l256 32h6
l38 -32v-80l-2 -56q43 37 113.5 76.5t151.5 66.5t157 27q129 0 198 -50.5t94.5 -154.5t25.5 -265v-668q0 -124 -21 -215.5t-60.5 -152t-96 -92.5t-128.5 -39z" />
    <glyph glyph-name="Omacron" unicode="&#x14c;" horiz-adv-x="1432" 
d="M702 -22q-206 -3 -347 93.5t-213 268t-72 392.5q0 177 51 319t142.5 243t212.5 154.5t260 53.5q202 0 341.5 -92.5t212 -260.5t72.5 -393q0 -175 -50.5 -317.5t-140.5 -244.5t-210 -157.5t-259 -58.5zM712 72q138 0 242.5 76.5t163 228.5t58.5 379q0 192 -53 339
t-155.5 230t-249.5 83q-138 0 -242 -74.5t-162 -224.5t-58 -377q0 -191 53 -340t154.5 -234.5t248.5 -85.5zM979 1769v-111h-526v111h526z" />
    <glyph glyph-name="omacron" unicode="&#x14d;" horiz-adv-x="1150" 
d="M71 562q0 137 43.5 244t117.5 181.5t165.5 113.5t187.5 39q179 0 287.5 -80.5t157.5 -213.5t49 -290q0 -136 -43.5 -243.5t-117.5 -182t-165.5 -113.5t-187.5 -39q-134 0 -228.5 46.5t-153 127.5t-85.5 186.5t-27 223.5zM575 82q101 0 173 52t110.5 155t38.5 255
q0 99 -17.5 188t-55 157.5t-98.5 107.5t-149 39q-102 0 -174.5 -52t-111 -154.5t-38.5 -255.5q0 -100 18 -189t56 -157.5t99.5 -107t148.5 -38.5zM856 1444v-122h-562v122h562z" />
    <glyph glyph-name="Obreve" unicode="&#x14e;" horiz-adv-x="1432" 
d="M702 -22q-206 -3 -347 93.5t-213 268t-72 392.5q0 177 51 319t142.5 243t212.5 154.5t260 53.5q202 0 341.5 -92.5t212 -260.5t72.5 -393q0 -175 -50.5 -317.5t-140.5 -244.5t-210 -157.5t-259 -58.5zM712 72q138 0 242.5 76.5t163 228.5t58.5 379q0 192 -53 339
t-155.5 230t-249.5 83q-138 0 -242 -74.5t-162 -224.5t-58 -377q0 -191 53 -340t154.5 -234.5t248.5 -85.5zM716 1626q-85 0 -149.5 31.5t-101 88.5t-36.5 131q0 10 1 21t3 21h90q0 -5 0.5 -13t1.5 -18q5 -33 24.5 -65t59.5 -53.5t107 -21.5t107 21.5t59.5 53.5t24.5 65
q2 10 2 18v13h90q2 -10 3 -21t1 -21q0 -74 -36.5 -131t-101 -88.5t-149.5 -31.5z" />
    <glyph glyph-name="obreve" unicode="&#x14f;" horiz-adv-x="1150" 
d="M71 562q0 137 43.5 244t117.5 181.5t165.5 113.5t187.5 39q179 0 287.5 -80.5t157.5 -213.5t49 -290q0 -136 -43.5 -243.5t-117.5 -182t-165.5 -113.5t-187.5 -39q-134 0 -228.5 46.5t-153 127.5t-85.5 186.5t-27 223.5zM575 82q101 0 173 52t110.5 155t38.5 255
q0 99 -17.5 188t-55 157.5t-98.5 107.5t-149 39q-102 0 -174.5 -52t-111 -154.5t-38.5 -255.5q0 -100 18 -189t56 -157.5t99.5 -107t148.5 -38.5zM575 1299q-100 0 -171 38.5t-108.5 103.5t-37.5 144q0 10 1 21t3 21h90q0 -5 0.5 -13t1.5 -18q6 -38 26.5 -77.5t66.5 -66
t128 -26.5t128 26.5t66.5 66t26.5 77.5q2 10 2 18v13h90q2 -10 3 -21t1 -21q0 -79 -37.5 -144t-108.5 -103.5t-171 -38.5z" />
    <glyph glyph-name="Ohungarumlaut" unicode="&#x150;" horiz-adv-x="1432" 
d="M702 -22q-206 -3 -347 93.5t-213 268t-72 392.5q0 177 51 319t142.5 243t212.5 154.5t260 53.5q202 0 341.5 -92.5t212 -260.5t72.5 -393q0 -175 -50.5 -317.5t-140.5 -244.5t-210 -157.5t-259 -58.5zM712 72q138 0 242.5 76.5t163 228.5t58.5 379q0 192 -53 339
t-155.5 230t-249.5 83q-138 0 -242 -74.5t-162 -224.5t-58 -377q0 -191 53 -340t154.5 -234.5t248.5 -85.5zM878 1604l-65 62l261 304l115 -93q-30 -40 -69 -79.5t-81.5 -76t-83.5 -66.5t-75 -51h-2zM514 1604l-64 54l240 312l115 -93q-40 -53 -90 -105.5t-101.5 -96
t-97.5 -71.5h-2z" />
    <glyph glyph-name="ohungarumlaut" unicode="&#x151;" horiz-adv-x="1150" 
d="M71 562q0 137 43.5 244t117.5 181.5t165.5 113.5t187.5 39q179 0 287.5 -80.5t157.5 -213.5t49 -290q0 -136 -43.5 -243.5t-117.5 -182t-165.5 -113.5t-187.5 -39q-134 0 -228.5 46.5t-153 127.5t-85.5 186.5t-27 223.5zM575 82q101 0 173 52t110.5 155t38.5 255
q0 99 -17.5 188t-55 157.5t-98.5 107.5t-149 39q-102 0 -174.5 -52t-111 -154.5t-38.5 -255.5q0 -100 18 -189t56 -157.5t99.5 -107t148.5 -38.5zM785 1298l-78 54l212 386l139 -93q-14 -37 -47.5 -87t-75 -101.5t-81.5 -93.5t-67 -65h-2zM409 1298l-78 54l212 386l139 -93
q-14 -37 -47.5 -87t-75 -101.5t-81.5 -93.5t-67 -65h-2z" />
    <glyph glyph-name="OE" unicode="&#x152;" horiz-adv-x="1995" 
d="M1006 64q-67 -37 -142 -58.5t-156 -21.5q-202 0 -344.5 94t-218 263t-75.5 393q0 177 52 319t143.5 243t212.5 156t260 58q50 1 96.5 -4.5t89.5 -18t82 -31.5v30h821l28 -294h-94l-54 192l-538 9v-579l369 6l27 164h99v-442h-99l-27 172l-369 6v-619l614 17l102 250
l94 -29l-62 -339h-911v64zM720 78q45 0 85.5 7.5t76.5 22t67 35.5t57 49v1126q-31 30 -71.5 52.5t-92.5 35t-118 12.5q-143 0 -250 -79.5t-166.5 -232t-59.5 -372.5q0 -180 55 -329t160.5 -238t256.5 -89z" />
    <glyph glyph-name="oe" unicode="&#x153;" horiz-adv-x="1870" 
d="M565 -22q-134 0 -228.5 46.5t-153 127.5t-85.5 186.5t-27 223.5q0 137 43.5 244t117.5 181.5t165.5 113.5t187.5 39q158 0 260 -64t158 -169q68 110 177 171.5t243 61.5q177 0 277 -101t107 -295q0 -57 -2 -100t-10 -76h-712q0 -101 23 -188t68.5 -151.5t113.5 -100.5
t157 -36q86 0 174 31t134 71l32 -74q-38 -39 -101 -71t-138.5 -51.5t-152.5 -19.5q-145 0 -247 63.5t-161 173.5q-37 -57 -84.5 -101.5t-102 -74.5t-114 -45.5t-119.5 -15.5zM253 574q0 -100 18 -189t56 -157.5t99.5 -107t148.5 -38.5q101 0 173 52t110.5 155t38.5 255
q0 99 -17.5 188t-55 157.5t-98.5 107.5t-149 39q-102 0 -174.5 -52t-111 -154.5t-38.5 -255.5zM1085 662h542q3 21 4.5 51t1.5 37q-1 123 -58.5 205.5t-191.5 82.5q-80 0 -144 -36t-104.5 -118.5t-49.5 -221.5z" />
    <glyph glyph-name="Racute" unicode="&#x154;" horiz-adv-x="1365" 
d="M79 0v86l172 18v1276l-160 24v82h244q72 0 131 4t106 8t83 4q188 0 299 -46.5t159 -134t48 -211.5q0 -94 -35.5 -180t-102.5 -150.5t-162 -93.5q38 -23 75.5 -72.5t74.5 -113.5t71.5 -130.5t66.5 -124.5t61 -95.5t53 -43.5l84 -22v-84h-218q-25 0 -56 42.5t-66.5 111.5
t-74 148.5t-78.5 154t-79.5 130t-77.5 73.5h-64h-86t-81.5 0.5t-50.5 1.5v-558l206 -18v-86h-542zM685 758q89 0 157 37t106.5 112t38.5 189q0 89 -32.5 158.5t-113.5 109.5t-226 40q-28 0 -61 -2t-68.5 -5t-70.5 -5v-632q35 -2 89.5 -2.5t105.5 0t75 0.5zM649 1600l-64 54
l240 312l136 -110q-25 -33 -63 -71.5t-82 -75.5t-87 -66t-78 -43h-2z" />
    <glyph glyph-name="racute" unicode="&#x155;" horiz-adv-x="881" 
d="M75 0v84l160 12v882l-154 34v90l254 32h4l38 -32v-32l-4 -178h4q9 10 36.5 46.5t75 79.5t115.5 74.5t157 31.5q29 0 44.5 -2.5t25.5 -5.5v-168q-6 5 -33.5 11.5t-68.5 6.5q-93 0 -155.5 -24.5t-104 -56.5t-72.5 -55v-732l266 -16v-82h-588zM388 1298l-64 54l310 386
l136 -110q-19 -32 -66.5 -80.5t-107 -100t-115 -92t-91.5 -57.5h-2z" />
    <glyph glyph-name="uni0156" unicode="&#x156;" horiz-adv-x="1365" 
d="M79 0v86l172 18v1276l-160 24v82h244q72 0 131 4t106 8t83 4q188 0 299 -46.5t159 -134t48 -211.5q0 -94 -35.5 -180t-102.5 -150.5t-162 -93.5q38 -23 75.5 -72.5t74.5 -113.5t71.5 -130.5t66.5 -124.5t61 -95.5t53 -43.5l84 -22v-84h-218q-25 0 -56 42.5t-66.5 111.5
t-74 148.5t-78.5 154t-79.5 130t-77.5 73.5h-64h-86t-81.5 0.5t-50.5 1.5v-558l206 -18v-86h-542zM685 758q89 0 157 37t106.5 112t38.5 189q0 89 -32.5 158.5t-113.5 109.5t-226 40q-28 0 -61 -2t-68.5 -5t-70.5 -5v-632q35 -2 89.5 -2.5t105.5 0t75 0.5zM792 -288
q0 -71 -33 -125.5t-69.5 -86.5t-47.5 -36h-2l-54 38v12q30 15 49 54t19 70q0 30 -13.5 46t-28.5 26q-15 11 -26.5 27t-11.5 47q0 37 17 56t39 25.5t36 6.5h4q56 0 89 -41t33 -119z" />
    <glyph glyph-name="uni0157" unicode="&#x157;" horiz-adv-x="881" 
d="M75 0v84l160 12v882l-154 34v90l254 32h4l38 -32v-32l-4 -178h4q9 10 36.5 46.5t75 79.5t115.5 74.5t157 31.5q29 0 44.5 -2.5t25.5 -5.5v-168q-6 5 -33.5 11.5t-68.5 6.5q-93 0 -155.5 -24.5t-104 -56.5t-72.5 -55v-732l266 -16v-82h-588zM430 -288q0 -71 -33 -125.5
t-69.5 -86.5t-47.5 -36h-2l-54 38v12q30 15 49 54t19 70q0 30 -13.5 46t-28.5 26q-15 11 -26.5 27t-11.5 47q0 37 17 56t39 25.5t36 6.5h4q56 0 89 -41t33 -119z" />
    <glyph glyph-name="Rcaron" unicode="&#x158;" horiz-adv-x="1365" 
d="M79 0v86l172 18v1276l-160 24v82h244q72 0 131 4t106 8t83 4q188 0 299 -46.5t159 -134t48 -211.5q0 -94 -35.5 -180t-102.5 -150.5t-162 -93.5q38 -23 75.5 -72.5t74.5 -113.5t71.5 -130.5t66.5 -124.5t61 -95.5t53 -43.5l84 -22v-84h-218q-25 0 -56 42.5t-66.5 111.5
t-74 148.5t-78.5 154t-79.5 130t-77.5 73.5h-64h-86t-81.5 0.5t-50.5 1.5v-558l206 -18v-86h-542zM685 758q89 0 157 37t106.5 112t38.5 189q0 89 -32.5 158.5t-113.5 109.5t-226 40q-28 0 -61 -2t-68.5 -5t-70.5 -5v-632q35 -2 89.5 -2.5t105.5 0t75 0.5zM568 1616
l-243 267l66 49l262 -200l262 200l66 -49l-243 -267h-170z" />
    <glyph glyph-name="rcaron" unicode="&#x159;" horiz-adv-x="881" 
d="M75 0v84l160 12v882l-154 34v90l254 32h4l38 -32v-32l-4 -178h4q9 10 36.5 46.5t75 79.5t115.5 74.5t157 31.5q29 0 44.5 -2.5t25.5 -5.5v-168q-6 5 -33.5 11.5t-68.5 6.5q-93 0 -155.5 -24.5t-104 -56.5t-72.5 -55v-732l266 -16v-82h-588zM352 1312l-227 368l66 50
l250 -287l250 287l66 -50l-227 -368h-178z" />
    <glyph glyph-name="Sacute" unicode="&#x15a;" horiz-adv-x="1176" 
d="M572 -22q-108 0 -194.5 22t-147 44.5t-91.5 25.5l16 356h104l30 -262q23 -22 67.5 -42t103 -33t122.5 -13q120 0 193.5 34t107 96.5t33.5 147.5q0 88 -47.5 147t-128.5 102.5t-182 84.5q-63 26 -133 61.5t-131.5 86.5t-100 122t-38.5 168q0 112 58.5 196.5t164.5 132
t249 47.5q67 0 126 -9.5t108 -22.5t85.5 -24.5t58.5 -15.5l-12 -328h-100l-36 248q-14 12 -49 25.5t-84.5 23t-106.5 9.5q-102 0 -169.5 -26.5t-101 -80.5t-33.5 -135q0 -91 43.5 -146.5t122.5 -96t183 -89.5q74 -34 149 -73t138.5 -89t102 -117t38.5 -157q0 -77 -32 -152
t-96 -135.5t-161.5 -96.5t-228.5 -36zM584 1600l-64 54l240 312l136 -110q-25 -33 -63 -71.5t-82 -75.5t-87 -66t-78 -43h-2z" />
    <glyph glyph-name="sacute" unicode="&#x15b;" horiz-adv-x="946" 
d="M446 -22q-62 0 -133.5 14t-133 33.5t-93.5 36.5v252h108l30 -156q14 -21 50.5 -41t86.5 -32.5t105 -12.5q89 0 142.5 22.5t77.5 63t24 94.5q0 59 -33.5 100.5t-100 75.5t-166.5 70q-104 38 -173 85t-103 111.5t-34 155.5q0 88 53.5 151.5t142 98t192.5 34.5
q79 0 140.5 -12t104 -27t63.5 -23v-238h-98l-36 146q-10 18 -39.5 32t-69.5 22t-81 8q-67 1 -117 -19t-77.5 -55.5t-27.5 -83.5q0 -76 38.5 -120t99 -71.5t126.5 -54.5t128 -56t111 -67t78 -91t29 -128q0 -100 -52 -171t-145.5 -109t-216.5 -38zM420 1298l-64 54l310 386
l136 -110q-19 -32 -66.5 -80.5t-107 -100t-115 -92t-91.5 -57.5h-2z" />
    <glyph glyph-name="Scircumflex" unicode="&#x15c;" horiz-adv-x="1176" 
d="M572 -22q-108 0 -194.5 22t-147 44.5t-91.5 25.5l16 356h104l30 -262q23 -22 67.5 -42t103 -33t122.5 -13q120 0 193.5 34t107 96.5t33.5 147.5q0 88 -47.5 147t-128.5 102.5t-182 84.5q-63 26 -133 61.5t-131.5 86.5t-100 122t-38.5 168q0 112 58.5 196.5t164.5 132
t249 47.5q67 0 126 -9.5t108 -22.5t85.5 -24.5t58.5 -15.5l-12 -328h-100l-36 248q-14 12 -49 25.5t-84.5 23t-106.5 9.5q-102 0 -169.5 -26.5t-101 -80.5t-33.5 -135q0 -91 43.5 -146.5t122.5 -96t183 -89.5q74 -34 149 -73t138.5 -89t102 -117t38.5 -157q0 -77 -32 -152
t-96 -135.5t-161.5 -96.5t-228.5 -36zM326 1604l-66 50l243 276h170l243 -276l-66 -50l-262 210z" />
    <glyph glyph-name="scircumflex" unicode="&#x15d;" horiz-adv-x="946" 
d="M446 -22q-62 0 -133.5 14t-133 33.5t-93.5 36.5v252h108l30 -156q14 -21 50.5 -41t86.5 -32.5t105 -12.5q89 0 142.5 22.5t77.5 63t24 94.5q0 59 -33.5 100.5t-100 75.5t-166.5 70q-104 38 -173 85t-103 111.5t-34 155.5q0 88 53.5 151.5t142 98t192.5 34.5
q79 0 140.5 -12t104 -27t63.5 -23v-238h-98l-36 146q-10 18 -39.5 32t-69.5 22t-81 8q-67 1 -117 -19t-77.5 -55.5t-27.5 -83.5q0 -76 38.5 -120t99 -71.5t126.5 -54.5t128 -56t111 -67t78 -91t29 -128q0 -100 -52 -171t-145.5 -109t-216.5 -38zM213 1264l-66 50l237 370
h178l237 -370l-66 -50l-260 279z" />
    <glyph glyph-name="Scedilla" unicode="&#x15e;" horiz-adv-x="1176" 
d="M572 -22q-108 0 -194.5 22t-147 44.5t-91.5 25.5l16 356h104l30 -262q23 -22 67.5 -42t103 -33t122.5 -13q120 0 193.5 34t107 96.5t33.5 147.5q0 88 -47.5 147t-128.5 102.5t-182 84.5q-63 26 -133 61.5t-131.5 86.5t-100 122t-38.5 168q0 112 58.5 196.5t164.5 132
t249 47.5q67 0 126 -9.5t108 -22.5t85.5 -24.5t58.5 -15.5l-12 -328h-100l-36 248q-14 12 -49 25.5t-84.5 23t-106.5 9.5q-102 0 -169.5 -26.5t-101 -80.5t-33.5 -135q0 -91 43.5 -146.5t122.5 -96t183 -89.5q74 -34 149 -73t138.5 -89t102 -117t38.5 -157q0 -77 -32 -152
t-96 -135.5t-161.5 -96.5t-228.5 -36zM544 -470q-40 0 -81 8t-68 18v118q21 -7 50 -11.5t44 -4.5q74 0 113 25.5t39 116.5q0 42 -13 83t-29.5 72.5t-25.5 44.5h46h36q21 -19 51 -60t52.5 -97t22.5 -119q0 -68 -29 -111t-82 -63t-126 -20z" />
    <glyph glyph-name="scedilla" unicode="&#x15f;" horiz-adv-x="946" 
d="M446 -22q-62 0 -133.5 14t-133 33.5t-93.5 36.5v252h108l30 -156q14 -21 50.5 -41t86.5 -32.5t105 -12.5q89 0 142.5 22.5t77.5 63t24 94.5q0 59 -33.5 100.5t-100 75.5t-166.5 70q-104 38 -173 85t-103 111.5t-34 155.5q0 88 53.5 151.5t142 98t192.5 34.5
q79 0 140.5 -12t104 -27t63.5 -23v-238h-98l-36 146q-10 18 -39.5 32t-69.5 22t-81 8q-67 1 -117 -19t-77.5 -55.5t-27.5 -83.5q0 -76 38.5 -120t99 -71.5t126.5 -54.5t128 -56t111 -67t78 -91t29 -128q0 -100 -52 -171t-145.5 -109t-216.5 -38zM409 -470q-40 0 -81 8
t-68 18v118q21 -7 50 -11.5t44 -4.5q59 0 95.5 25.5t36.5 116.5q0 42 -13 83t-29.5 72.5t-25.5 44.5l46 12l36 -12q21 -19 51 -60t52.5 -97t22.5 -119q0 -68 -28 -111t-77 -63t-112 -20z" />
    <glyph glyph-name="Scaron" unicode="&#x160;" horiz-adv-x="1176" 
d="M572 -22q-108 0 -194.5 22t-147 44.5t-91.5 25.5l16 356h104l30 -262q23 -22 67.5 -42t103 -33t122.5 -13q120 0 193.5 34t107 96.5t33.5 147.5q0 88 -47.5 147t-128.5 102.5t-182 84.5q-63 26 -133 61.5t-131.5 86.5t-100 122t-38.5 168q0 112 58.5 196.5t164.5 132
t249 47.5q67 0 126 -9.5t108 -22.5t85.5 -24.5t58.5 -15.5l-12 -328h-100l-36 248q-14 12 -49 25.5t-84.5 23t-106.5 9.5q-102 0 -169.5 -26.5t-101 -80.5t-33.5 -135q0 -91 43.5 -146.5t122.5 -96t183 -89.5q74 -34 149 -73t138.5 -89t102 -117t38.5 -157q0 -77 -32 -152
t-96 -135.5t-161.5 -96.5t-228.5 -36zM503 1616l-243 267l66 49l262 -200l262 200l66 -49l-243 -267h-170z" />
    <glyph glyph-name="scaron" unicode="&#x161;" horiz-adv-x="946" 
d="M446 -22q-62 0 -133.5 14t-133 33.5t-93.5 36.5v252h108l30 -156q14 -21 50.5 -41t86.5 -32.5t105 -12.5q89 0 142.5 22.5t77.5 63t24 94.5q0 59 -33.5 100.5t-100 75.5t-166.5 70q-104 38 -173 85t-103 111.5t-34 155.5q0 88 53.5 151.5t142 98t192.5 34.5
q79 0 140.5 -12t104 -27t63.5 -23v-238h-98l-36 146q-10 18 -39.5 32t-69.5 22t-81 8q-67 1 -117 -19t-77.5 -55.5t-27.5 -83.5q0 -76 38.5 -120t99 -71.5t126.5 -54.5t128 -56t111 -67t78 -91t29 -128q0 -100 -52 -171t-145.5 -109t-216.5 -38zM384 1312l-227 368l66 50
l250 -287l250 287l66 -50l-227 -368h-178z" />
    <glyph glyph-name="uni0162" unicode="&#x162;" horiz-adv-x="1362" 
d="M595 104v1292l-374 -12l-67 -406h-110l37 508h1203l34 -508h-110l-64 406l-377 12v-1292l277 -18v-86h-720v86zM637 -470q-40 0 -81 8t-68 18v118q21 -7 50 -11.5t44 -4.5q74 0 113 25.5t39 116.5q0 42 -13 83t-29.5 72.5t-25.5 44.5h46h36q21 -19 51 -60t52.5 -97
t22.5 -119q0 -68 -29 -111t-82 -63t-126 -20z" />
    <glyph glyph-name="uni0163" unicode="&#x163;" horiz-adv-x="765" 
d="M406 -22q-99 0 -156.5 46t-57.5 178v788h-152v80q18 4 42 9.5t45 11.5t29 11q11 7 18.5 15t14 19.5t12.5 28.5q9 24 21.5 72t24 93.5t15.5 63.5h90v-284h356v-120h-356v-646q0 -111 8.5 -161t35.5 -63.5t82 -13.5q62 0 133.5 17t104.5 33l26 -76q-29 -22 -83.5 -45.5
t-121 -40t-131.5 -16.5zM331 -470q-40 0 -81 8t-68 18v118q21 -7 50 -11.5t44 -4.5q59 0 95.5 25.5t36.5 116.5q0 42 -13 83t-29.5 72.5t-25.5 44.5l46 12l36 -12q21 -19 51 -60t52.5 -97t22.5 -119q0 -68 -28 -111t-77 -63t-112 -20z" />
    <glyph glyph-name="Tcaron" unicode="&#x164;" horiz-adv-x="1362" 
d="M595 104v1292l-374 -12l-67 -406h-110l37 508h1203l34 -508h-110l-64 406l-377 12v-1292l277 -18v-86h-720v86zM596 1616l-243 267l66 49l262 -200l262 200l66 -49l-243 -267h-170z" />
    <glyph glyph-name="tcaron" unicode="&#x165;" horiz-adv-x="765" 
d="M406 -22q-99 0 -156.5 46t-57.5 178v788h-152v80q18 4 42 9.5t45 11.5t29 11q11 7 18.5 15t14 19.5t12.5 28.5q9 24 21.5 72t24 93.5t15.5 63.5h90v-284h356v-120h-356v-646q0 -111 8.5 -161t35.5 -63.5t82 -13.5q62 0 133.5 17t104.5 33l26 -76q-29 -22 -83.5 -45.5
t-121 -40t-131.5 -16.5zM716 1196h-96l-6 12q5 41 8.5 87t3.5 100q0 82 -5 131t-17 74l10 34h148q11 -31 14.5 -68.5t3.5 -110.5q0 -26 -8 -75.5t-22.5 -101t-33.5 -82.5z" />
    <glyph glyph-name="Tbar" unicode="&#x166;" horiz-adv-x="1362" 
d="M595 104v1292l-374 -12l-67 -406h-110l37 508h1203l34 -508h-110l-64 406l-377 12v-1292l277 -18v-86h-720v86zM1014 803v-105h-664v105h664z" />
    <glyph glyph-name="tbar" unicode="&#x167;" horiz-adv-x="765" 
d="M406 -22q-99 0 -156.5 46t-57.5 178v339h-148v110h148v339h-152v80q18 4 42 9.5t45 11.5t29 11q11 7 18.5 15t14 19.5t12.5 28.5q9 24 21.5 72t24 93.5t15.5 63.5h90v-284h356v-120h-356v-339h356v-110h-356v-197q0 -111 8.5 -161t35.5 -63.5t82 -13.5q41 0 88 8
t87.5 19.5t62.5 22.5l26 -76q-29 -22 -87.5 -45.5t-126 -40t-122.5 -16.5z" />
    <glyph glyph-name="Utilde" unicode="&#x168;" horiz-adv-x="1476" 
d="M758 -16q-193 0 -315.5 71t-180.5 215.5t-58 365.5v742l-150 22v86h490v-86l-172 -22v-760q0 -155 29.5 -258.5t83.5 -164.5t127.5 -87t161.5 -26q128 0 214.5 59t130 175t43.5 286v774l-166 24v86h444v-86l-152 -22v-768q0 -163 -39.5 -281t-111.5 -194.5t-168.5 -113.5
t-210.5 -37zM857 1620q-49 0 -80.5 21t-54 48.5t-44.5 48.5t-52 21q-40 0 -62 -37.5t-36 -87.5l-73 31q3 99 55 153.5t123 54.5q50 0 81 -21t53.5 -49t44.5 -49t52 -21q40 0 62.5 38t35.5 88l73 -31q-3 -100 -55 -154t-123 -54z" />
    <glyph glyph-name="utilde" unicode="&#x169;" horiz-adv-x="1243" 
d="M983 -18q-48 0 -74 16.5t-26 67.5v78q-40 -36 -98.5 -74.5t-127 -65t-140.5 -26.5q-184 0 -261.5 103t-77.5 331v588l-118 34v74l242 26h2l36 -24v-674q0 -119 18 -193t67 -108.5t142 -34.5q63 0 119 21t102 50.5t77 56.5v772l-152 34v74l266 26h2l46 -24v-1022h124
l-2 -76q-33 -9 -73 -19.5t-93 -10.5zM260 1329q20 94 71.5 148t129.5 54q57 0 92 -21t59.5 -48t48 -48t56.5 -21q44 0 68.5 31t40.5 83l87 -42q-19 -94 -72 -148t-131 -54q-54 0 -88 21t-58 48t-49 48t-61 21q-44 0 -68.5 -31t-39.5 -83z" />
    <glyph glyph-name="Umacron" unicode="&#x16a;" horiz-adv-x="1476" 
d="M758 -16q-193 0 -315.5 71t-180.5 215.5t-58 365.5v742l-150 22v86h490v-86l-172 -22v-760q0 -155 29.5 -258.5t83.5 -164.5t127.5 -87t161.5 -26q128 0 214.5 59t130 175t43.5 286v774l-166 24v86h444v-86l-152 -22v-768q0 -163 -39.5 -281t-111.5 -194.5t-168.5 -113.5
t-210.5 -37zM1008 1769v-111h-526v111h526z" />
    <glyph glyph-name="umacron" unicode="&#x16b;" horiz-adv-x="1243" 
d="M983 -18q-48 0 -74 16.5t-26 67.5v78q-40 -36 -98.5 -74.5t-127 -65t-140.5 -26.5q-184 0 -261.5 103t-77.5 331v588l-118 34v74l242 26h2l36 -24v-674q0 -119 18 -193t67 -108.5t142 -34.5q63 0 119 21t102 50.5t77 56.5v772l-152 34v74l266 26h2l46 -24v-1022h124
l-2 -76q-33 -9 -73 -19.5t-93 -10.5zM867 1444v-122h-562v122h562z" />
    <glyph glyph-name="Ubreve" unicode="&#x16c;" horiz-adv-x="1476" 
d="M758 -16q-193 0 -315.5 71t-180.5 215.5t-58 365.5v742l-150 22v86h490v-86l-172 -22v-760q0 -155 29.5 -258.5t83.5 -164.5t127.5 -87t161.5 -26q128 0 214.5 59t130 175t43.5 286v774l-166 24v86h444v-86l-152 -22v-768q0 -163 -39.5 -281t-111.5 -194.5t-168.5 -113.5
t-210.5 -37zM745 1626q-85 0 -149.5 31.5t-101 88.5t-36.5 131q0 10 1 21t3 21h90q0 -5 0.5 -13t1.5 -18q5 -33 24.5 -65t59.5 -53.5t107 -21.5t107 21.5t59.5 53.5t24.5 65q2 10 2 18v13h90q2 -10 3 -21t1 -21q0 -74 -36.5 -131t-101 -88.5t-149.5 -31.5z" />
    <glyph glyph-name="ubreve" unicode="&#x16d;" horiz-adv-x="1243" 
d="M983 -18q-48 0 -74 16.5t-26 67.5v78q-40 -36 -98.5 -74.5t-127 -65t-140.5 -26.5q-184 0 -261.5 103t-77.5 331v588l-118 34v74l242 26h2l36 -24v-674q0 -119 18 -193t67 -108.5t142 -34.5q63 0 119 21t102 50.5t77 56.5v772l-152 34v74l266 26h2l46 -24v-1022h124
l-2 -76q-33 -9 -73 -19.5t-93 -10.5zM586 1299q-100 0 -171 38.5t-108.5 103.5t-37.5 144q0 10 1 21t3 21h90q0 -5 0.5 -13t1.5 -18q6 -38 26.5 -77.5t66.5 -66t128 -26.5t128 26.5t66.5 66t26.5 77.5q2 10 2 18v13h90q2 -10 3 -21t1 -21q0 -79 -37.5 -144t-108.5 -103.5
t-171 -38.5z" />
    <glyph glyph-name="Uring" unicode="&#x16e;" horiz-adv-x="1476" 
d="M758 -16q-193 0 -315.5 71t-180.5 215.5t-58 365.5v742l-150 22v86h490v-86l-172 -22v-760q0 -155 29.5 -258.5t83.5 -164.5t127.5 -87t161.5 -26q128 0 214.5 59t130 175t43.5 286v774l-166 24v86h444v-86l-152 -22v-768q0 -163 -39.5 -281t-111.5 -194.5t-168.5 -113.5
t-210.5 -37zM745 1593q-108 0 -175.5 65t-67.5 169t67.5 169t175.5 65t175.5 -65t67.5 -169t-67.5 -169t-175.5 -65zM745 1676q65 0 104.5 40.5t39.5 110.5t-39.5 110.5t-104.5 40.5t-104.5 -40.5t-39.5 -110.5t39.5 -110.5t104.5 -40.5z" />
    <glyph glyph-name="uring" unicode="&#x16f;" horiz-adv-x="1243" 
d="M983 -18q-48 0 -74 16.5t-26 67.5v78q-40 -36 -98.5 -74.5t-127 -65t-140.5 -26.5q-184 0 -261.5 103t-77.5 331v588l-118 34v74l242 26h2l36 -24v-674q0 -119 18 -193t67 -108.5t142 -34.5q63 0 119 21t102 50.5t77 56.5v772l-152 34v74l266 26h2l46 -24v-1022h124
l-2 -76q-33 -9 -73 -19.5t-93 -10.5zM586 1280q-108 0 -175.5 65t-67.5 169t67.5 169t175.5 65t175.5 -65t67.5 -169t-67.5 -169t-175.5 -65zM586 1363q65 0 104.5 40.5t39.5 110.5t-39.5 110.5t-104.5 40.5t-104.5 -40.5t-39.5 -110.5t39.5 -110.5t104.5 -40.5z" />
    <glyph glyph-name="Uhungarumlaut" unicode="&#x170;" horiz-adv-x="1476" 
d="M758 -16q-193 0 -315.5 71t-180.5 215.5t-58 365.5v742l-150 22v86h490v-86l-172 -22v-760q0 -155 29.5 -258.5t83.5 -164.5t127.5 -87t161.5 -26q128 0 214.5 59t130 175t43.5 286v774l-166 24v86h444v-86l-152 -22v-768q0 -163 -39.5 -281t-111.5 -194.5t-168.5 -113.5
t-210.5 -37zM907 1604l-65 62l261 304l115 -93q-30 -40 -69 -79.5t-81.5 -76t-83.5 -66.5t-75 -51h-2zM543 1604l-64 54l240 312l115 -93q-40 -53 -90 -105.5t-101.5 -96t-97.5 -71.5h-2z" />
    <glyph glyph-name="uhungarumlaut" unicode="&#x171;" horiz-adv-x="1243" 
d="M983 -18q-48 0 -74 16.5t-26 67.5v78q-40 -36 -98.5 -74.5t-127 -65t-140.5 -26.5q-184 0 -261.5 103t-77.5 331v588l-118 34v74l242 26h2l36 -24v-674q0 -119 18 -193t67 -108.5t142 -34.5q63 0 119 21t102 50.5t77 56.5v772l-152 34v74l266 26h2l46 -24v-1022h124
l-2 -76q-33 -9 -73 -19.5t-93 -10.5zM796 1298l-78 54l212 386l139 -93q-14 -37 -47.5 -87t-75 -101.5t-81.5 -93.5t-67 -65h-2zM420 1298l-78 54l212 386l139 -93q-14 -37 -47.5 -87t-75 -101.5t-81.5 -93.5t-67 -65h-2z" />
    <glyph glyph-name="Uogonek" unicode="&#x172;" horiz-adv-x="1476" 
d="M758 -16q-193 0 -315.5 71t-180.5 215.5t-58 365.5v742l-150 22v86h490v-86l-172 -22v-760q0 -155 29.5 -258.5t83.5 -164.5t127.5 -87t161.5 -26q128 0 214.5 59t130 175t43.5 286v774l-166 24v86h444v-86l-152 -22v-768q0 -163 -39.5 -281t-111.5 -194.5t-168.5 -113.5
t-210.5 -37zM768 -496q-61 0 -112 21.5t-81.5 63.5t-30.5 102q0 71 35 130t87 105t102 76l60 8l76 -8q-72 -30 -118.5 -78t-69 -101t-22.5 -98q0 -52 25.5 -81t82.5 -29q52 0 98 18.5t84 47.5l30 -84q-29 -36 -94.5 -64.5t-151.5 -28.5z" />
    <glyph glyph-name="uogonek" unicode="&#x173;" horiz-adv-x="1243" 
d="M983 -18q-48 0 -74 16.5t-26 67.5v78q-40 -36 -98.5 -74.5t-127 -65t-140.5 -26.5q-184 0 -261.5 103t-77.5 331v588l-118 34v74l242 26h2l36 -24v-674q0 -119 18 -193t67 -108.5t142 -34.5q63 0 119 21t102 50.5t77 56.5v772l-152 34v74l266 26h2l46 -24v-1022h124
l-2 -76q-33 -9 -73 -19.5t-93 -10.5zM881 -496q-46 0 -98 16t-89 56t-37 110q0 49 22.5 96t60 88.5t84.5 75.5t96 56l60 8l76 -8q-68 -30 -124.5 -73t-90.5 -96t-34 -113q0 -52 35.5 -78.5t92.5 -26.5q52 0 95 17t89 46l30 -81q-34 -24 -74.5 -45t-88 -34.5t-105.5 -13.5z
" />
    <glyph glyph-name="Wcircumflex" unicode="&#x174;" horiz-adv-x="1968" 
d="M-40 1400v86h504v-86l-196 -22l280 -950l66 -306l78 306l240 782l-54 168l-148 22v86h520v-86l-198 -22l282 -950l78 -330l66 330l266 950l-210 22v86h474v-86l-134 -22l-410 -1378h-154l-324 1036l-318 -1036h-146l-422 1376zM722 1604l-66 50l243 276h170l243 -276
l-66 -50l-262 210z" />
    <glyph glyph-name="wcircumflex" unicode="&#x175;" horiz-adv-x="1666" 
d="M-14 1028v82h437v-82l-160 -24l177 -622l63 -278l66 280l210 726h178l181 -726l58 -282l78 280l176 620l-154 26v82h392v-82l-110 -26l-321 -1018h-165l-199 744l-52 243l-54 -243l-221 -744h-158l-313 1020zM596 1264l-66 50l237 370h178l237 -370l-66 -50l-260 279z
" />
    <glyph glyph-name="Ycircumflex" unicode="&#x176;" horiz-adv-x="1280" 
d="M556 104v468l-450 804l-124 24v86h478v-86l-168 -22l290 -566l72 -160l78 160l302 566l-168 22v86h434v-86l-132 -22l-444 -804v-468l228 -20v-86h-618v86zM378 1604l-66 50l243 276h170l243 -276l-66 -50l-262 210z" />
    <glyph glyph-name="ycircumflex" unicode="&#x177;" horiz-adv-x="1150" 
d="M256 -500q-27 0 -51.5 4t-36.5 10v151q12 -6 38.5 -9t53.5 -3q36 0 74 11.5t77.5 46.5t80.5 104.5t82 184.5h-88l-382 1002l-94 26v82h442v-82l-162 -24l210 -612l104 -326l100 328l188 610l-140 24v82h384v-82l-104 -24q-71 -219 -124.5 -381t-91.5 -276.5t-63.5 -190
t-42 -120.5t-26.5 -68q-62 -153 -117.5 -257.5t-127.5 -157.5t-183 -53zM315 1264l-66 50l237 370h178l237 -370l-66 -50l-260 279z" />
    <glyph glyph-name="Ydieresis" unicode="&#x178;" horiz-adv-x="1280" 
d="M556 104v468l-450 804l-124 24v86h478v-86l-168 -22l290 -566l72 -160l78 160l302 566l-168 22v86h434v-86l-132 -22l-444 -804v-468l228 -20v-86h-618v86zM460 1632q-42 0 -68 33t-26 82t28.5 90t79.5 41h2q42 0 68 -33t26 -82t-28.5 -90t-79.5 -41h-2zM806 1632
q-42 0 -68 33t-26 82t28.5 90t79.5 41h2q42 0 68 -33t26 -82t-28.5 -90t-79.5 -41h-2z" />
    <glyph glyph-name="Zacute" unicode="&#x179;" horiz-adv-x="1286" 
d="M112 0l-48 78l802 1172l114 150l-640 -20l-98 -260l-92 10l42 362h942l44 -74l-792 -1164l-130 -160l748 34l100 316l96 -22l-48 -422h-1040zM639 1600l-64 54l240 312l136 -110q-25 -33 -63 -71.5t-82 -75.5t-87 -66t-78 -43h-2z" />
    <glyph glyph-name="zacute" unicode="&#x17a;" horiz-adv-x="1079" 
d="M817 1006l-546 -14l-28 -188h-110v306h834l34 -74l-634 -820l-125 -114l590 18l88 218l102 -12l-48 -326h-876l-36 76l630 814zM497 1298l-64 54l310 386l136 -110q-19 -32 -66.5 -80.5t-107 -100t-115 -92t-91.5 -57.5h-2z" />
    <glyph glyph-name="Zdotaccent" unicode="&#x17b;" horiz-adv-x="1286" 
d="M112 0l-48 78l802 1172l114 150l-640 -20l-98 -260l-92 10l42 362h942l44 -74l-792 -1164l-130 -160l748 34l100 316l96 -22l-48 -422h-1040zM635 1632q-55 0 -83 33t-28 82t30.5 90t94.5 41h2q55 0 83 -33t28 -82t-30.5 -90t-94.5 -41h-2z" />
    <glyph glyph-name="zdotaccent" unicode="&#x17c;" horiz-adv-x="1079" 
d="M817 1006l-546 -14l-28 -188h-110v306h834l34 -74l-634 -820l-125 -114l590 18l88 218l102 -12l-48 -326h-876l-36 76l630 814zM542 1320q-55 0 -83 33t-28 82t30.5 90t94.5 41h2q55 0 83 -33t28 -82t-30.5 -90t-94.5 -41h-2z" />
    <glyph glyph-name="Zcaron" unicode="&#x17d;" horiz-adv-x="1286" 
d="M112 0l-48 78l802 1172l114 150l-640 -20l-98 -260l-92 10l42 362h942l44 -74l-792 -1164l-130 -160l748 34l100 316l96 -22l-48 -422h-1040zM558 1616l-243 267l66 49l262 -200l262 200l66 -49l-243 -267h-170z" />
    <glyph glyph-name="zcaron" unicode="&#x17e;" horiz-adv-x="1079" 
d="M817 1006l-546 -14l-28 -188h-110v306h834l34 -74l-634 -820l-125 -114l590 18l88 218l102 -12l-48 -326h-876l-36 76l630 814zM461 1312l-227 368l66 50l250 -287l250 287l66 -50l-227 -368h-178z" />
    <glyph glyph-name="longs" unicode="&#x17f;" horiz-adv-x="688" 
d="M51 0v86l176 16v1108q0 92 36.5 172.5t97.5 141t138 94.5t158 34q38 0 61 -5t41 -11v-164q-13 11 -59 23.5t-109 12.5q-69 0 -113.5 -23t-66.5 -77t-22 -146v-1162l228 -14v-86h-566z" />
    <glyph glyph-name="uni0180" unicode="&#x180;" horiz-adv-x="1174" 
d="M-10 1530v74l292 34h4l38 -28v-608q35 33 85 65t114.5 52.5t142.5 20.5q112 0 212 -56t163 -176t63 -312q0 -128 -39.5 -240t-114 -197t-180 -133t-236.5 -48q-91 0 -171 13.5t-134 31.5t-67 31v1458zM600 1018q-63 0 -117 -21.5t-95 -51.5t-64 -55v-740q15 -34 82 -52
t142 -18q115 0 199.5 57t131.5 166t49 265q3 158 -42.5 257.5t-121 146t-164.5 46.5zM6 1362h559v-105h-559v105z" />
    <glyph glyph-name="uni0181" unicode="&#x181;" horiz-adv-x="1575" 
d="M917 -12q-49 0 -92.5 3t-96 6t-129.5 3h-246v86l172 18l6 1382h76q60 0 112 4t101 8t99 4q134 0 228.5 -23t153 -66.5t85.5 -105.5t27 -141q0 -90 -33.5 -168t-99.5 -132.5t-163 -73.5q127 4 217 -39t137.5 -123t47.5 -186q0 -88 -29.5 -169.5t-98 -146t-185 -102.5
t-289.5 -38zM915 84q155 0 248 40t134.5 114t41.5 176q0 159 -85 232.5t-279 73.5h-66t-81.5 0.5t-79 0t-59.5 -2.5v-618q26 -8 66 -11.5t83 -4t77 -0.5zM935 824q101 0 170.5 35t105.5 103t36 166q0 140 -75 211t-275 71q-49 0 -88.5 -3t-69.5 -6t-50 -3v-572q23 -1 57 -2
t70 -0.5t68 0.5h51zM82 986q-5 13 -8 43t-3 78q0 73 23 142.5t75.5 124.5t142 85.5t222.5 26.5l20 -56l-20 -52q-111 5 -181.5 -19.5t-103.5 -75t-33 -125.5q0 -22 8.5 -69t24.5 -103h-167z" />
    <glyph glyph-name="uni0182" unicode="&#x182;" horiz-adv-x="1359" 
d="M706 -14q-19 0 -58.5 2t-88 5t-95 5t-79.5 2h-289v86l201 18v1274l-199 22v86h1041l21 -362h-116l-65 260l-520 12v-516q19 4 49.5 8t68.5 8t78.5 6.5t79.5 2.5q167 0 284 -41.5t178 -132.5t61 -240q0 -155 -70.5 -268.5t-195 -175t-286.5 -61.5zM692 84
q135 0 221.5 47.5t128.5 136.5t42 212q0 127 -49 195t-137 94t-206 26q-44 0 -90 -2t-84 -5.5t-59 -7.5v-680q32 -4 61.5 -7.5t69.5 -6t102 -2.5z" />
    <glyph glyph-name="uni0183" unicode="&#x183;" horiz-adv-x="1174" 
d="M534 -22q-91 0 -171 13.5t-134 31.5t-67 31l-1 1584h834l15 -321l-95 -7l-61 221l-531 15v-544q35 33 85.5 65t115 52.5t142.5 20.5q112 0 212 -56t163 -176t63 -312q0 -128 -39.5 -240t-114 -197t-180 -133t-236.5 -48zM548 80q115 0 199.5 57t131.5 166t49 265
q3 158 -42.5 257.5t-121 146t-164.5 46.5q-63 0 -117 -21.5t-95 -51.5t-64 -55v-740q15 -34 82 -52t142 -18z" />
    <glyph glyph-name="uni0186" unicode="&#x186;" horiz-adv-x="1298" 
d="M544 -22q-90 0 -152.5 11t-107.5 25.5t-82 26.5t-76 13l-50 268l98 16l80 -190q26 -21 61 -38t88.5 -26.5t136.5 -9.5q128 0 222 55.5t155 152.5t91 222t30 264q0 205 -64.5 347.5t-174 216.5t-245.5 74q-79 0 -139.5 -9t-100.5 -23t-58 -30l-44 -232h-104l-16 326
q27 5 71.5 15.5t100.5 21.5t119.5 19t130.5 8q151 0 280.5 -56.5t226.5 -159.5t151 -243t54 -307q0 -174 -45 -314t-132.5 -239t-214 -152t-290.5 -53z" />
    <glyph glyph-name="uni0187" unicode="&#x187;" horiz-adv-x="1298" 
d="M1190 1112l-62 35l-16 258q28 119 68.5 190.5t95 104t124.5 32.5q26 0 45.5 -4.5t35.5 -11.5v-164q-22 12 -62.5 24t-84.5 12q-37 0 -64.5 -18.5t-43.5 -64t-21 -126.5zM754 -22q-163 0 -290 53t-214.5 152t-132.5 239t-45 314q0 167 54 308t151 245t226.5 161t280.5 57
q67 0 130.5 -8t119.5 -19t100.5 -21.5t71.5 -15.5l-16 -326h-104l-44 232q-18 16 -58 30t-100.5 23t-139.5 9q-136 0 -245.5 -75.5t-174 -219t-64.5 -348.5q0 -139 30 -264t91 -222t155 -152.5t222 -55.5q83 0 137 9.5t88.5 26.5t60.5 38l80 190l98 -16l-50 -268
q-39 -1 -76 -13t-82 -26.5t-107.5 -25.5t-152.5 -11z" />
    <glyph glyph-name="uni0188" unicode="&#x188;" horiz-adv-x="1004" 
d="M900 794l-85 35l-15 141q-9 109 34 193.5t111 132.5t133 48q61 0 82 -16v-164q-25 17 -54 27t-64 11q-31 1 -61.5 -12t-51 -46t-22.5 -94zM567 -22q-162 0 -272 75t-166.5 203t-57.5 286q-1 119 33 226.5t103 191t174 132t246 48.5q58 0 112.5 -10.5t98 -24.5t69.5 -25
l-8 -286h-100l-42 192q-3 16 -29.5 29.5t-64.5 22t-78 8.5q-103 0 -179.5 -53.5t-119 -152.5t-43.5 -236q-1 -130 26.5 -226.5t76.5 -159t115 -93.5t142 -31q61 0 117 14.5t101.5 35.5t75.5 42l32 -66q-37 -37 -95.5 -69.5t-128 -52.5t-138.5 -20z" />
    <glyph glyph-name="uni0189" unicode="&#x189;" horiz-adv-x="1491" 
d="M661 -16q-36 1 -75 3.5t-80.5 5.5t-84 5t-86.5 2h-256v86l172 18v1274l-160 22v86h242q61 0 119.5 4t116.5 8t118 4q194 0 333 -51t227 -145.5t130 -225.5t42 -292q0 -184 -55.5 -333.5t-157 -256t-240 -162.5t-305.5 -52zM685 82q161 2 287 79t198.5 225.5t72.5 365.5
q0 164 -38 286.5t-114 204t-190 122.5t-266 41q-45 0 -84.5 -2.5t-73.5 -5.5t-62 -4v-1296q48 -9 92.5 -12.5t88 -4t89.5 0.5zM106 724v105h643v-105h-643z" />
    <glyph glyph-name="uni018A" unicode="&#x18a;" horiz-adv-x="1770" 
d="M940 -16q-36 1 -75 3.5t-80.5 5.5t-84 5t-86.5 2h-256v86l172 18v1382h82q61 0 119.5 4t116.5 8t118 4q194 0 333 -51t227 -145.5t130 -225.5t42 -292q0 -184 -55.5 -333.5t-157 -256t-240 -162.5t-305.5 -52zM964 82q161 2 287 79t198.5 225.5t72.5 365.5
q0 164 -38 286.5t-114 204t-190 122.5t-266 41q-45 0 -84.5 -2.5t-73.5 -5.5t-62 -4v-1296q48 -9 92.5 -12.5t88 -4t89.5 0.5zM82 986q-5 13 -8 43t-3 78q0 73 23 142.5t75.5 124.5t142 85.5t222.5 26.5l20 -56l-20 -52q-111 5 -181.5 -19.5t-103.5 -75t-33 -125.5
q0 -22 8.5 -69t24.5 -103h-167z" />
    <glyph glyph-name="uni018B" unicode="&#x18b;" horiz-adv-x="1297" 
d="M608 -14q-161 0 -286 61.5t-195.5 175t-70.5 268.5q0 223 136.5 318.5t386.5 95.5q39 0 79.5 -2.5t78.5 -6.5t68.5 -8t49.5 -8v516l-520 -12l-65 -260h-116l21 362h1041v-86l-199 -22v-1274l201 -18v-86h-289q-33 0 -79.5 -2t-95 -5t-88 -5t-58.5 -2zM622 84
q63 0 102.5 2.5t69.5 6t61 7.5v680q-21 4 -59 7.5t-84 5.5t-90 2q-118 0 -206 -26t-137 -94t-49 -195q0 -123 42 -212t128.5 -136.5t221.5 -47.5z" />
    <glyph glyph-name="uni018C" unicode="&#x18c;" horiz-adv-x="1185" 
d="M508 -22q-85 0 -164 33t-140.5 101t-97.5 171.5t-36 244.5q0 171 69 309.5t197 220.5t304 82q59 0 113 -6.5t99 -17.5v430l-509 -15l-73 -241h-95l15 348h824v-1548h122v-78q-39 -9 -87 -19.5t-105 -10.5q-40 0 -62 14t-22 72v70q-35 -39 -86.5 -76t-118 -60.5
t-147.5 -23.5zM574 104q63 0 118 21t96.5 51.5t63.5 59.5v736q-16 27 -82.5 47.5t-143.5 20.5q-107 0 -192 -50t-135.5 -157t-52.5 -277q-2 -162 43 -261.5t120.5 -145t164.5 -45.5z" />
    <glyph glyph-name="uni018E" unicode="&#x18e;" horiz-adv-x="1246" 
d="M995 104l172 -18v-86h-1084l-62 338l96 30l102 -250l612 -16v616l-368 -6l-26 -170h-100v442h100l26 -166l368 -6v582l-536 -10l-54 -192h-96l28 294h990v-86l-168 -22v-1274z" />
    <glyph glyph-name="uni018F" unicode="&#x18f;" horiz-adv-x="1335" 
d="M603 -22q-105 0 -202.5 39t-175 115t-124 185.5t-49.5 250.5q0 62 1.5 111t8.5 83h1016q-8 201 -68.5 346t-164.5 222.5t-243 77.5q-95 0 -166 -17t-120 -40.5t-78 -42.5l-36 -170h-106l2 286q42 2 92 14t113.5 27t145 26t185.5 11q143 0 259.5 -54t199.5 -153.5
t127.5 -237.5t44.5 -305q0 -172 -48.5 -314.5t-137.5 -245t-210 -158.5t-266 -56zM626 72q96 0 177 34.5t141.5 107t95 184.5t38.5 266h-838q-4 -27 -6 -54t-2 -56q0 -82 25 -167t74.5 -156.5t123.5 -115t171 -43.5z" />
    <glyph glyph-name="uni0190" unicode="&#x190;" horiz-adv-x="1146" 
d="M574 -22q-154 -1 -270.5 50.5t-182 153.5t-65.5 253q0 143 84.5 241.5t229.5 135.5q-119 34 -192 112.5t-73 205.5q0 119 57.5 202t174 127t292.5 44q65 0 120 -7t103.5 -17t92 -21.5t85.5 -20.5l-17 -327h-104l-42 233q-50 32 -107 48.5t-167 16.5q-151 0 -236.5 -77
t-85.5 -214q0 -133 75.5 -198.5t232.5 -72.5q37 0 88 2.5t109 8.5v-161q-76 19 -122 28t-75 9q-148 -7 -245.5 -92.5t-97.5 -232.5q0 -169 98 -248t279 -83q87 -1 157 19.5t122 51.5l80 188l98 -14l-50 -268q-64 -10 -128.5 -28t-141 -32.5t-176.5 -15.5z" />
    <glyph glyph-name="uni0191" unicode="&#x191;" horiz-adv-x="1217" 
d="M23 -502q-41 0 -62.5 5t-35.5 11v161q14 -10 55 -23t99 -13q65 0 103.5 28t55.5 83.5t17 137.5v1490l-176 22v86h1048l20 -328h-109l-56 226l-563 10v-592l400 6l34 162h92v-442h-92l-34 170l-400 8v-769q0 -92 -34 -171.5t-91.5 -139.5t-128 -94t-142.5 -34z" />
    <glyph glyph-name="florin" unicode="&#x192;" horiz-adv-x="970" 
d="M210 -348l112 1338h-202l6 72l208 48l10 78q9 111 48.5 196.5t99.5 143.5t132 88t146 30q60 0 95 -6t45 -12l-18 -140q-13 9 -52 18.5t-108 9.5q-60 0 -107 -22.5t-77.5 -81.5t-39.5 -168l-16 -134h312l-8 -120h-312l-116 -1338h-158z" />
    <glyph glyph-name="uni0193" unicode="&#x193;" horiz-adv-x="1441" 
d="M1259 1108l-62 35l-16 258q28 119 68.5 190.5t95 104t124.5 32.5q26 0 45.5 -4.5t35.5 -11.5v-164q-22 12 -62.5 24t-84.5 12q-37 0 -64.5 -18.5t-43.5 -64t-21 -126.5zM751 -22q-166 0 -296 57t-219.5 158.5t-136 236t-46.5 288.5q0 188 52.5 334t149.5 246.5t233.5 152
t304.5 51.5q77 0 152 -8.5t140.5 -20.5t115 -21.5t74.5 -11.5l-16 -332h-104l-44 230q-15 12 -58.5 28t-113.5 28t-164 12q-170 0 -289.5 -71t-182 -212.5t-62.5 -352.5q0 -132 28.5 -257t90.5 -224.5t161.5 -158.5t241.5 -59q71 0 134 12t119 33.5t107 49.5v456l-278 20
v106h568v-106l-122 -20v-542q-41 -1 -83 -12t-89 -26t-101.5 -29.5t-120.5 -24.5t-146 -10z" />
    <glyph glyph-name="uni0194" unicode="&#x194;" horiz-adv-x="1281" 
d="M637 -345q-75 0 -129.5 27t-84.5 79t-30 126q0 52 9 121.5t52.5 157t147.5 193.5l51 82l86 212l324 725l-160 22v86h422v-86l-128 -22l-511 -1082l-49 -46q-59 -78 -87 -146.5t-36.5 -123t-8.5 -93.5q0 -64 32.5 -97.5t87.5 -33.5q53 0 87 32t34 103q0 56 -17.5 113.5
t-67.5 163.5l-48 103l-27 48l-501 1059l-124 22v86h486v-86l-184 -22l338 -724l115 -241l103 -219q33 -70 50.5 -121t24 -90t6.5 -75q0 -74 -32 -131t-90.5 -89.5t-140.5 -32.5z" />
    <glyph glyph-name="uni0196" unicode="&#x196;" horiz-adv-x="734" 
d="M456 -22q-106 0 -163 58t-57 191v1151l-182 22v86h347v-1235q0 -62 11 -90.5t35.5 -36t64.5 -7.5q45 0 86 16t90 41l26 -94q-60 -45 -121.5 -73.5t-136.5 -28.5z" />
    <glyph glyph-name="uni0197" unicode="&#x197;" horiz-adv-x="711" 
d="M273 104v1274l-194 22v86h553v-86l-194 -22v-1274l194 -20v-84h-553v86zM598 843v-105h-490v105h490z" />
    <glyph glyph-name="uni0198" unicode="&#x198;" horiz-adv-x="1508" 
d="M79 0v86l172 17l-1 1275l-167 22v86h513v-86l-182 -23l1 -726l555 691q29 36 64.5 73t86.5 61.5t128 24.5q63 0 111 -21t80.5 -58.5t49 -88.5t16.5 -111q0 -36 -4 -63t-9 -50l-157 1q8 22 15 52.5t7 63.5q0 72 -28 123.5t-93 51.5q-39 0 -72.5 -21.5t-63.5 -54.5t-58 -68
l-314 -393q51 -43 107 -114.5t113.5 -156.5t112.5 -169.5t102.5 -156t84 -115.5t56.5 -47l94 -21v-84l-240 -1q-26 0 -62 42t-79 111.5t-91 153t-98 168.5t-99.5 158.5t-96.5 120.5l-218 -246v-404l187 -19v-84h-523z" />
    <glyph glyph-name="uni0199" unicode="&#x199;" horiz-adv-x="1249" 
d="M51 0v86l132 16v1108q0 92 36.5 172.5t100.5 141t147 94.5t175 34q75 0 105 -5t48 -11v-164q-9 7 -34.5 15.5t-71 14.5t-113.5 6q-83 0 -134.5 -23t-75 -77t-23.5 -146v-661l-4 -125l486 526l-156 28v80h472v-80l-154 -28l-318 -336l398 -566l132 -14v-86h-458v86l138 16
l-314 474l-226 -236l4 -84v-154l156 -16v-86h-448z" />
    <glyph glyph-name="uni019A" unicode="&#x19a;" horiz-adv-x="599" 
d="M213 102v1410l-170 18v74l290 34h2l38 -26v-1512l190 -14v-86h-526v86zM558 763v-105h-530v105h530z" />
    <glyph glyph-name="uni019B" unicode="&#x19b;" horiz-adv-x="1150" 
d="M256 1611q111 0 183 -53t127.5 -157.5t117.5 -258.5q10 -23 26.5 -68t42 -120.5t63.5 -190t91.5 -276.5t124.5 -381l104 -24v-82h-384v82l140 24l-188 610l-100 328l-104 -326l-210 -612l162 -24v-82h-442v82l94 26l382 1002h88q-41 116 -82 185t-80.5 104.5t-77.5 47
t-74 11.5q-27 0 -53.5 -3t-38.5 -9v151q12 6 36.5 10t51.5 4zM766 1546l33 -57l-524 -326l-33 57z" />
    <glyph glyph-name="uni019C" unicode="&#x19c;" horiz-adv-x="2081" 
d="M1996 1486v-86l-148 -16v-1251l154 -34v-90l-256 -32l-44 32v88l2 50q-64 -46 -139.5 -85.5t-153 -63t-148.5 -23.5q-67 0 -119.5 16t-90 48.5t-60.5 83.5q-49 -40 -119 -73.5t-148 -54t-150 -20.5q-119 0 -203 43.5t-127.5 145.5t-43.5 277v943l-148 16v86h458v-86
l-146 -16v-937q0 -134 25.5 -210.5t82 -108t148.5 -31.5q61 0 122.5 12.5t118.5 36.5t104 59q-7 17 -12.5 49.5t-8.5 80t-3 110.5v939l-159 16v86h477v-86l-154 -16v-941q0 -129 14.5 -204.5t61.5 -107.5t144 -32q56 0 115 16t120 46t122 70v1153l-153 16v86h465z" />
    <glyph glyph-name="uni019D" unicode="&#x19d;" horiz-adv-x="1515" 
d="M59 -345q-26 0 -45.5 4.5t-35.5 11.5v164q23 -12 63.5 -24t83.5 -12q28 0 46 10t28.5 33.5t14.5 64t4 101.5v1370q-26 4 -53 7.5t-53.5 7.5t-53.5 7v86h322l708 -1026l114 -200v1118l-176 22v86h456v-86l-164 -22v-1378h-104l-716 1030l-164 266v-1245
q0 -75 -16.5 -145.5t-50.5 -127t-85.5 -90t-122.5 -33.5z" />
    <glyph glyph-name="uni019E" unicode="&#x19e;" horiz-adv-x="1306" 
d="M804 -484v86l134 14v1052q0 116 -16 192.5t-64.5 114t-145.5 37.5q-57 0 -118.5 -20t-118 -51t-97.5 -63v-776l146 -16v-86h-442v86l134 16v876l-154 34v90l254 32h6l38 -32v-88l-2 -50q44 38 114.5 78t151.5 67t156 27q130 0 199 -50.5t95 -154.5t26 -265v-1050l150 -14
v-86h-446z" />
    <glyph glyph-name="uni019F" unicode="&#x19f;" horiz-adv-x="1432" 
d="M702 -22q-206 -3 -347 93.5t-213 268t-72 392.5q0 177 51 319t142.5 243t212.5 154.5t260 53.5q202 0 341.5 -92.5t212 -260.5t72.5 -393q0 -175 -50.5 -317.5t-140.5 -244.5t-210 -157.5t-259 -58.5zM712 72q138 0 242.5 76.5t163 228.5t58.5 379q0 192 -53 339
t-155.5 230t-249.5 83q-138 0 -242 -74.5t-162 -224.5t-58 -377q0 -191 53 -340t154.5 -234.5t248.5 -85.5zM1285 798v-105h-1131v105h1131z" />
    <glyph glyph-name="Ohorn" unicode="&#x1a0;" horiz-adv-x="1432" 
d="M702 -22q-206 -3 -347 93.5t-213 268t-72 392.5q0 177 51 319t142.5 243t212.5 154.5t260 53.5q101 0 186.5 -24t155.5 -69q66 4 112.5 35t74.5 76t41 92.5t13 83.5v19.5t-2 14.5h150q2 -12 3 -22.5t1 -21.5q0 -91 -32 -169t-95.5 -130.5t-159.5 -69.5q88 -98 133 -241
t45 -320q0 -175 -50.5 -317.5t-140.5 -244.5t-210 -157.5t-259 -58.5zM712 72q138 0 242.5 76.5t163 228.5t58.5 379q0 192 -53 339t-155.5 230t-249.5 83q-138 0 -243 -74.5t-164 -224.5t-59 -377q0 -191 54 -340t156.5 -234.5t249.5 -85.5z" />
    <glyph glyph-name="ohorn" unicode="&#x1a1;" horiz-adv-x="1150" 
d="M71 562q0 137 43.5 244t117.5 181.5t165.5 113.5t187.5 39q179 0 287.5 -80.5t157.5 -213.5t49 -290q0 -136 -43.5 -243.5t-117.5 -182t-165.5 -113.5t-187.5 -39q-134 0 -228.5 46.5t-153 127.5t-85.5 186.5t-27 223.5zM575 82q101 0 173 52t110.5 155t38.5 255
q0 99 -17.5 188t-55 157.5t-98.5 107.5t-149 39q-102 0 -174.5 -52t-111 -154.5t-38.5 -255.5q0 -100 18 -189t56 -157.5t99.5 -107t148.5 -38.5zM784 1008l-39 102q97 0 146.5 18.5t68 47.5t20 59.5t1.5 54.5q0 18 -4 38.5t-11 39.5h132q7 -19 9 -53t2 -59
q0 -55 -15 -100.5t-51.5 -78.5t-99.5 -51t-159 -18z" />
    <glyph glyph-name="uni01A4" unicode="&#x1a4;" horiz-adv-x="1535" 
d="M359 0v86l172 18v1325l-23 30l23 27h82q66 0 111.5 3.5t98.5 7t140 3.5q196 0 308.5 -50t160 -144t47.5 -226q0 -162 -77 -276.5t-206.5 -175t-288.5 -60.5q-39 0 -85 1t-82 3t-45 4v-470l278 -20v-86h-614zM911 666q101 0 190.5 37.5t145.5 127.5t56 249
q0 119 -42.5 190t-129 102.5t-218.5 31.5q-48 0 -87 -3t-71 -6t-60 -3v-718q29 -4 85 -6t131 -2zM82 986q-5 13 -8 43t-3 78q0 73 23 142.5t75.5 124.5t142 85.5t222.5 26.5l20 -56l-20 -52q-111 5 -181.5 -19.5t-103.5 -75t-33 -125.5q0 -22 8.5 -69t24.5 -103h-167z" />
    <glyph glyph-name="uni01A5" unicode="&#x1a5;" horiz-adv-x="1196" 
d="M1003 794l-85 35l-15 141q-9 109 34 193.5t111 132.5t133 48q61 0 82 -16v-164q-25 17 -54 27t-64 11q-31 1 -61.5 -12t-51 -46t-22.5 -94zM32 -484v88l154 20v1354l-156 34v90l256 32h4l36 -32v-122q35 36 87.5 73t121.5 62t153 25q111 0 211.5 -56t163.5 -176t63 -312
q0 -129 -40 -241t-114 -197t-178 -132.5t-232 -47.5q-54 0 -116.5 8.5t-103.5 23.5l4 -170v-216l222 -20v-88h-536zM570 72q107 0 193.5 53t137.5 162.5t51 280.5q0 119 -26 204.5t-72 140t-105.5 80t-126.5 25.5q-63 0 -117 -18.5t-95 -45.5t-64 -52v-762q15 -24 78.5 -46
t145.5 -22z" />
    <glyph glyph-name="uni01A6" unicode="&#x1a6;" horiz-adv-x="1389" 
d="M1153 -284q-25 0 -56 42.5t-66.5 111.5t-74 148.5t-78.5 154t-79.5 130t-77.5 73.5h-62h-84.5t-82 0.5t-54.5 1.5v-274l194 -20v-84h-553v86l194 18v1274l-194 22v86h553v-86l-194 -22v-174q78 3 138 8.5t103 5.5q188 0 299 -46.5t159 -134t48 -211.5q0 -94 -35.5 -180
t-102.5 -150.5t-162 -93.5q38 -23 75.5 -72.5t74.5 -113.5t71.5 -130.5t66.5 -124.5t61 -95.5t53 -43.5l84 -22v-84h-218zM709 474q89 0 157 37t106.5 112t38.5 189q0 89 -32.5 158.5t-113.5 109.5t-226 40q-41 0 -95 -4.5t-106 -7.5v-632q36 -2 91 -2.5t106 0t74 0.5z" />
    <glyph glyph-name="uni01A9" unicode="&#x1a9;" horiz-adv-x="1016" 
d="M156 -24q-45 0 -69.5 5t-42.5 11v164q14 -10 61 -23t117 -13q104 0 153 54t49 192v696q0 92 37 172.5t100 141t140.5 94.5t158.5 34q45 0 69.5 -5t42.5 -11v-164q-13 11 -60 23.5t-118 12.5q-103 0 -154 -54t-51 -192v-696q0 -92 -36.5 -172.5t-99 -141t-139.5 -94.5
t-158 -34z" />
    <glyph glyph-name="uni01AC" unicode="&#x1ac;" horiz-adv-x="1394" 
d="M356 0v86l271 18v1288h-156q-99 0 -161.5 -40t-91.5 -109t-27 -157.5t31 -185.5h-167q-5 13 -8 47.5t-3 110.5q0 69 22.5 144t72.5 139.5t132 104.5t200 40h845l34 -508h-110l-64 406l-377 12v-1292l277 -18v-86h-720z" />
    <glyph glyph-name="uni01AD" unicode="&#x1ad;" horiz-adv-x="765" 
d="M406 -22q-99 0 -156.5 46t-57.5 178v788h-152v80q18 4 50.5 11t62 14.5t37.5 12.5v51.5v50.5q0 92 36 172.5t95.5 141t132 94.5t145.5 34q45 0 69.5 -5t42.5 -11v-164q-13 11 -57.5 23.5t-99.5 12.5q-69 0 -113.5 -23t-66.5 -77t-22 -146v-152h356v-120h-356v-646
q0 -111 8.5 -161t35.5 -63.5t82 -13.5q62 0 133.5 17t104.5 33l26 -76q-29 -22 -87.5 -45.5t-126 -40t-122.5 -16.5z" />
    <glyph glyph-name="uni01AE" unicode="&#x1ae;" horiz-adv-x="1362" 
d="M971 -502q-65 0 -131 34t-121.5 94t-89.5 139.5t-34 171.5v1459l-374 -12l-67 -406h-110l37 508h1203l34 -508h-110l-64 406l-377 12v-1508q0 -82 15 -137.5t51.5 -83.5t101.5 -28q44 0 82.5 13t51.5 23v-161q-14 -6 -35.5 -11t-62.5 -5z" />
    <glyph glyph-name="Uhorn" unicode="&#x1af;" horiz-adv-x="1476" 
d="M758 -16q-193 0 -315.5 71t-180.5 215.5t-58 365.5v742l-150 22v86h490v-86l-172 -22v-760q0 -155 29.5 -258.5t83.5 -164.5t127.5 -87t161.5 -26q128 0 214.5 59t130 175t43.5 286v774l-166 24v86h197q84 0 134 33t72.5 81.5t22.5 95.5v19.5t-2 14.5h146q2 -10 3.5 -21
t1.5 -22q0 -76 -21.5 -130t-60 -88.5t-90 -53t-111.5 -24.5v-781q0 -163 -39.5 -281t-111.5 -194.5t-168.5 -113.5t-210.5 -37z" />
    <glyph glyph-name="uhorn" unicode="&#x1b0;" horiz-adv-x="1243" 
d="M983 -18q-48 0 -74 16.5t-26 67.5v78q-40 -36 -98.5 -74.5t-127 -65t-140.5 -26.5q-184 0 -261.5 103t-77.5 331v588l-118 34v74l242 26h2l36 -24v-674q0 -119 18 -193t67 -108.5t142 -34.5q63 0 119 21t102 50.5t77 56.5v772l-152 34v74l266 26h2l46 -24v-1022h124
l-2 -76q-33 -9 -73 -19.5t-93 -10.5zM1016 1032l-39 102q97 0 146.5 18.5t68 47.5t20 59.5t1.5 54.5q0 18 -4 38.5t-11 39.5h132q7 -19 9 -53t2 -59q0 -55 -15 -100.5t-51.5 -78.5t-99.5 -51t-159 -18z" />
    <glyph glyph-name="uni01B1" unicode="&#x1b1;" horiz-adv-x="1728" 
d="M1644 1505l40 -354h-104l-62 232l-402 10q65 -36 139 -114.5t139 -184t105.5 -224.5t38.5 -235q-3 -172 -60 -292.5t-153 -196t-216.5 -110.5t-250.5 -35q-121 0 -222 25.5t-180.5 76.5t-134.5 126t-83 174.5t-26 221.5q2 106 37 220.5t93 221t128 192t140 132.5l-390 -8
l-70 -232h-106l54 354h650v-104q-75 -45 -141 -123.5t-116 -180t-78.5 -217.5t-28.5 -235q0 -136 32.5 -239t93.5 -172.5t149 -104.5t199 -35q116 0 210 33t160.5 103t102 179.5t35.5 261.5q0 119 -36.5 234.5t-95 216t-126.5 173.5t-130 106v104h666z" />
    <glyph glyph-name="uni01B2" unicode="&#x1b2;" horiz-adv-x="1358" 
d="M671 -16q-129 0 -235.5 56t-170 188.5t-63.5 359.5v790l-148 22v86h312l-1 -912q0 -131 24.5 -225t66.5 -154t96 -88.5t113 -28.5q88 0 164.5 26t137.5 88.5t104 171t65.5 272.5t20.5 395q-1 122 -29.5 192.5t-72 104.5t-90 43.5t-82.5 9.5q-26 0 -61.5 -8.5t-72.5 -24
t-70 -38.5v154q20 17 66 29.5t98 12.5q92 0 173 -27.5t142 -87t95.5 -155.5t34.5 -233q0 -269 -48 -462.5t-132.5 -316.5t-196.5 -181.5t-240 -58.5z" />
    <glyph glyph-name="uni01B3" unicode="&#x1b3;" horiz-adv-x="1521" 
d="M334 0v86l222 18v468l-450 804l-124 24v86h478v-86l-168 -22l290 -566l72 -170l78 170l181 420q33 77 65.5 129t67.5 82.5t75.5 44t89.5 13.5q57 0 101 -21t75 -59t47 -90t16 -114q0 -36 -4.5 -68.5t-12.5 -64.5t-17 -67h-164q23 45 37 102.5t14 106.5q0 59 -13 98
t-36.5 58.5t-55.5 19.5q-47 0 -77 -29t-51.5 -73t-43.5 -90l-302 -636v-468l238 -20v-86h-628z" />
    <glyph glyph-name="uni01B4" unicode="&#x1b4;" horiz-adv-x="1248" 
d="M256 -501q-27 0 -51.5 4t-36.5 10v151q12 -6 38.5 -9t53.5 -3q36 0 74 11.5t77.5 47t80.5 105t82 184.5h-88l-382 1002l-94 26v82h442v-82l-162 -24l210 -612l104 -326l100 328l85 373q34 148 88.5 228t124.5 111t150 31q30 0 51.5 -4.5t30.5 -11.5v-164q-25 17 -54 27.5
t-64 10.5q-30 0 -62.5 -18t-65 -67.5t-63.5 -144.5q-22 -68 -46 -148t-48.5 -165.5l-49 -171t-49 -165t-48.5 -147.5q-55 -157 -111.5 -261.5t-131 -156t-185.5 -51.5z" />
    <glyph glyph-name="uni01B5" unicode="&#x1b5;" horiz-adv-x="1286" 
d="M112 0l-48 78l802 1172l114 150l-640 -20l-98 -260l-92 10l42 362h942l44 -74l-792 -1164l-130 -160l748 34l100 316l96 -22l-48 -422h-1040zM960 795v-105h-664v105h664z" />
    <glyph glyph-name="uni01B6" unicode="&#x1b6;" horiz-adv-x="1079" 
d="M817 1006l-546 -14l-28 -188h-110v306h834l34 -74l-634 -820l-125 -114l590 18l88 218l102 -12l-48 -326h-876l-36 76l630 814zM260 608h559v-105h-559v105z" />
    <glyph glyph-name="uni01B7" unicode="&#x1b7;" horiz-adv-x="1112" 
d="M454 -12q-110 0 -187.5 14.5t-127 31t-75.5 22.5l38 320h94l42 -236q10 -4 35 -14.5t73.5 -20t129.5 -9.5q104 0 178 28t121 76.5t69 110.5t22 129q0 103 -38.5 174t-129 109.5t-246.5 44.5h-42h-42l-24 70l361 417l95 109l-574 -6l-60 -206h-102l8 334h894l30 -84
l-494 -560q50 0 98.5 -3t94.5 -10q77 -12 142.5 -37t114.5 -68t76.5 -106t27.5 -152q0 -110 -43.5 -198.5t-123.5 -151t-190.5 -95.5t-244.5 -33z" />
    <glyph glyph-name="uni01B8" unicode="&#x1b8;" horiz-adv-x="1112" 
d="M658 -12q-134 0 -244.5 33t-190.5 95.5t-123.5 151t-43.5 198.5q0 89 27.5 152t76.5 106t115 68t142 37q46 7 95 10t98 3l-494 560l30 84h894l8 -334h-102l-60 206l-574 6l95 -109l361 -417l-24 -70h-42h-42q-156 -6 -246.5 -44.5t-129 -109.5t-38.5 -174q0 -67 22 -129
t69 -110.5t121 -76.5t178 -28q81 0 129.5 9.5t73.5 20t35 14.5l42 236h94l38 -320q-26 -6 -75.5 -22.5t-127 -31t-187.5 -14.5z" />
    <glyph glyph-name="uni01B9" unicode="&#x1b9;" horiz-adv-x="1056" 
d="M602 -490q-109 0 -206 36t-171.5 103.5t-116.5 163t-42 214.5q0 117 52 218.5t158.5 160t270.5 45.5l-476 579l32 74h879v-306h-109l-39 186l-572 17l126 -117l418 -515l-46 -57q-18 15 -49.5 26.5t-72 18t-87.5 6.5q-70 0 -125.5 -26t-94.5 -74t-59.5 -113.5
t-20.5 -145.5q0 -125 45.5 -214t129 -135.5t198.5 -46.5q83 0 131 13.5t84 44.5l36 266h105l14 -328q-30 -21 -74.5 -43t-120 -36.5t-197.5 -14.5z" />
    <glyph glyph-name="uni01C0" unicode="&#x1c0;" horiz-adv-x="480" 
d="M160 0v1662h160v-1662h-160z" />
    <glyph glyph-name="uni01C1" unicode="&#x1c1;" horiz-adv-x="916" 
d="M160 0v1662h160v-1662h-160zM596 0v1662h160v-1662h-160z" />
    <glyph glyph-name="uni01C2" unicode="&#x1c2;" horiz-adv-x="693" 
d="M269 0v633h-199v105h199v224h-199v105h199v595h160v-595h194v-105h-194v-224h194v-105h-194v-633h-160z" />
    <glyph glyph-name="uni01C3" unicode="&#x1c3;" horiz-adv-x="566" 
d="M368 1798l-42 -1338h-102l-50 1338h194zM160 88q0 56 42 93t90 37q60 0 87 -33t27 -77q0 -58 -40.5 -94t-93.5 -36q-43 0 -77.5 29.5t-34.5 80.5z" />
    <glyph glyph-name="uni01C4" unicode="&#x1c4;" horiz-adv-x="2730" 
d="M661 -16q-36 1 -75 3.5t-80.5 5.5t-84 5t-86.5 2h-256v86l172 18v1274l-160 22v86h242q61 0 119.5 4t116.5 8t118 4q194 0 333 -51t227 -145.5t130 -225.5t42 -292q0 -184 -55.5 -333.5t-157 -256t-240 -162.5t-305.5 -52zM685 82q161 2 287 79t198.5 225.5t72.5 365.5
q0 164 -38 286.5t-114 204t-190 122.5t-266 41q-45 0 -84.5 -2.5t-73.5 -5.5t-62 -4v-1296q48 -9 92.5 -12.5t88 -4t89.5 0.5zM1556 0l-48 78l802 1172l114 150l-640 -20l-98 -260l-92 10l42 362h942l44 -74l-792 -1164l-130 -160l748 34l100 316l96 -22l-48 -422h-1040z
M2002 1616l-243 267l66 49l262 -200l262 200l66 -49l-243 -267h-170z" />
    <glyph glyph-name="uni01C5" unicode="&#x1c5;" horiz-adv-x="2561" 
d="M661 -16q-36 1 -75 3.5t-80.5 5.5t-84 5t-86.5 2h-256v86l172 18v1274l-160 22v86h242q61 0 119.5 4t116.5 8t118 4q194 0 333 -51t227 -145.5t130 -225.5t42 -292q0 -184 -55.5 -333.5t-157 -256t-240 -162.5t-305.5 -52zM685 82q161 2 287 79t198.5 225.5t72.5 365.5
q0 164 -38 286.5t-114 204t-190 122.5t-266 41q-45 0 -84.5 -2.5t-73.5 -5.5t-62 -4v-1296q48 -9 92.5 -12.5t88 -4t89.5 0.5zM2299 1006l-546 -14l-28 -188h-110v306h834l34 -74l-634 -820l-125 -114l590 18l88 218l102 -12l-48 -326h-876l-36 76l630 814zM1943 1312
l-227 368l66 50l250 -287l250 287l66 -50l-227 -368h-178z" />
    <glyph glyph-name="uni01C6" unicode="&#x1c6;" horiz-adv-x="2264" 
d="M508 -22q-85 0 -164 33t-140.5 101t-97.5 171.5t-36 244.5q0 171 69 309.5t197 220.5t304 82q59 0 113 -6.5t99 -17.5v396l-208 20v72l328 34h4l38 -28v-1520h122v-78q-39 -9 -87 -19.5t-105 -10.5q-40 0 -62 14t-22 72v70q-35 -39 -86.5 -76t-118 -60.5t-147.5 -23.5z
M574 104q63 0 118 21t96.5 51.5t63.5 59.5v736q-16 27 -82.5 47.5t-143.5 20.5q-107 0 -192 -50t-135.5 -157t-52.5 -277q-2 -162 43 -261.5t120.5 -145t164.5 -45.5zM2002 1006l-546 -14l-28 -188h-110v306h834l34 -74l-634 -820l-125 -114l590 18l88 218l102 -12l-48 -326
h-876l-36 76l630 814zM1646 1312l-227 368l66 50l250 -287l250 287l66 -50l-227 -368h-178z" />
    <glyph glyph-name="uni01C7" unicode="&#x1c7;" horiz-adv-x="1858" 
d="M79 0v86l172 18v1274l-168 22v86h532v-86l-200 -22v-1274l560 16l112 312l96 -16l-74 -416h-1030zM1125 -274q59 16 112.5 51t94 86.5t61.5 118.5q18 57 26.5 121t11 159t2.5 244v870l-202 24v86h558v-86l-192 -24v-826q0 -166 -0.5 -290.5t-19.5 -217.5
q-23 -115 -87 -195.5t-149.5 -128.5t-171.5 -64z" />
    <glyph glyph-name="uni01C8" unicode="&#x1c8;" horiz-adv-x="1785" 
d="M79 0v86l172 18v1274l-168 22v86h532v-86l-200 -22v-1274l560 16l112 312l96 -16l-74 -416h-1030zM1261 -486q-10 -1 -35 -0.5t-49 2.5t-30 6l-8 82q15 -1 46.5 3.5t67.5 16.5q61 19 95 79t47.5 149.5t13.5 197.5l-2 920l-160 36v96l278 32h4l38 -32v-1090
q0 -124 -20.5 -215t-60.5 -151.5t-96.5 -92.5t-128.5 -39zM1465 1320q-55 0 -83 33t-28 82t30.5 90t94.5 41h2q55 0 83 -33t28 -82t-30.5 -90t-94.5 -41h-2z" />
    <glyph glyph-name="uni01C9" unicode="&#x1c9;" horiz-adv-x="1161" 
d="M213 102v1410l-170 18v74l290 34h2l38 -26v-1512l190 -14v-86h-526v86zM637 -486q-10 -1 -35 -0.5t-49 2.5t-30 6l-8 82q15 -1 46.5 3.5t67.5 16.5q61 19 95 79t47.5 149.5t13.5 197.5l-2 920l-160 36v96l278 32h4l38 -32v-1090q0 -124 -20.5 -215t-60.5 -151.5
t-96.5 -92.5t-128.5 -39zM841 1320q-55 0 -83 33t-28 82t30.5 90t94.5 41h2q55 0 83 -33t28 -82t-30.5 -90t-94.5 -41h-2z" />
    <glyph glyph-name="uni01CA" unicode="&#x1ca;" horiz-adv-x="2233" 
d="M69 0v86l160 20v1272q-26 4 -53 7.5t-53.5 7.5t-53.5 7v86h322l708 -1026l114 -200v1118l-176 22v86h456v-86l-164 -22v-1378h-104l-716 1030l-164 266v-1192l182 -18v-86h-458zM1500 -274q59 16 112.5 51t94 86.5t61.5 118.5q18 57 26.5 121t11 159t2.5 244v870l-202 24
v86h558v-86l-192 -24v-826q0 -166 -0.5 -290.5t-19.5 -217.5q-23 -115 -87 -195.5t-149.5 -128.5t-171.5 -64z" />
    <glyph glyph-name="uni01CB" unicode="&#x1cb;" horiz-adv-x="2125" 
d="M69 0v86l160 20v1272q-26 4 -53 7.5t-53.5 7.5t-53.5 7v86h322l708 -1026l114 -200v1118l-176 22v86h456v-86l-164 -22v-1378h-104l-716 1030l-164 266v-1192l182 -18v-86h-458zM1601 -486q-10 -1 -35 -0.5t-49 2.5t-30 6l-8 82q15 -1 46.5 3.5t67.5 16.5q61 19 95 79
t47.5 149.5t13.5 197.5l-2 920l-160 36v96l278 32h4l38 -32v-1090q0 -124 -20.5 -215t-60.5 -151.5t-96.5 -92.5t-128.5 -39zM1805 1320q-55 0 -83 33t-28 82t30.5 90t94.5 41h2q55 0 83 -33t28 -82t-30.5 -90t-94.5 -41h-2z" />
    <glyph glyph-name="uni01CC" unicode="&#x1cc;" horiz-adv-x="1860" 
d="M216 102v876l-154 34v90l254 32h6l38 -32v-88l-2 -50q44 38 114.5 78t151.5 67t156 27q130 0 199 -50.5t95 -154.5t26 -265v-566l150 -14v-86h-446v86l134 14v568q0 116 -16 192.5t-64.5 114t-145.5 37.5q-57 0 -118.5 -20t-118 -51t-97.5 -63v-776l146 -16v-86h-442v86z
M1336 -486q-10 -1 -35 -0.5t-49 2.5t-30 6l-8 82q15 -1 46.5 3.5t67.5 16.5q61 19 95 79t47.5 149.5t13.5 197.5l-2 920l-160 36v96l278 32h4l38 -32v-1090q0 -124 -20.5 -215t-60.5 -151.5t-96.5 -92.5t-128.5 -39zM1540 1320q-55 0 -83 33t-28 82t30.5 90t94.5 41h2
q55 0 83 -33t28 -82t-30.5 -90t-94.5 -41h-2z" />
    <glyph glyph-name="uni01CD" unicode="&#x1cd;" horiz-adv-x="1408" 
d="M122 104l511 1396h173l478 -1396l130 -18v-86h-488v86l170 18l-103 318h-621l-106 -316l178 -20v-86h-450v86zM958 526l-212 666l-51 175l-56 -181l-233 -660h552zM638 1616l-243 267l66 49l262 -200l262 200l66 -49l-243 -267h-170z" />
    <glyph glyph-name="uni01CE" unicode="&#x1ce;" horiz-adv-x="1042" 
d="M376 -22q-89 0 -165 33t-122.5 102.5t-46.5 178.5q0 105 57.5 176t154 113.5t215.5 62.5t243 22v84q0 99 -21 154t-73 77.5t-146 22.5q-117 0 -205.5 -39.5t-136.5 -66.5l-44 88q18 17 83 52t156 64.5t187 29.5q133 0 212 -38t113.5 -123t34.5 -225v-657h124v-74
q-22 -6 -54 -13t-67 -12t-65 -5q-43 0 -63.5 13t-20.5 71v71q-25 -22 -75.5 -60.5t-120.5 -70t-154 -31.5zM436 96q60 0 138 35.5t138 86.5v354q-166 -1 -275 -34.5t-163 -91.5t-54 -134q0 -80 28.5 -127.5t77.5 -68t110 -20.5zM432 1312l-227 368l66 50l250 -287l250 287
l66 -50l-227 -368h-178z" />
    <glyph glyph-name="uni01CF" unicode="&#x1cf;" horiz-adv-x="711" 
d="M273 104v1274l-194 22v86h553v-86l-194 -22v-1274l194 -20v-84h-553v86zM271 1616l-243 267l66 49l262 -200l262 200l66 -49l-243 -267h-170z" />
    <glyph glyph-name="uni01D0" unicode="&#x1d0;" horiz-adv-x="624" 
d="M62 0v86l176 16v876l-156 34v90l274 32h4l40 -32v-1002l174 -14v-86h-512zM226 1312l-227 368l66 50l250 -287l250 287l66 -50l-227 -368h-178z" />
    <glyph glyph-name="uni01D1" unicode="&#x1d1;" horiz-adv-x="1432" 
d="M702 -22q-206 -3 -347 93.5t-213 268t-72 392.5q0 177 51 319t142.5 243t212.5 154.5t260 53.5q202 0 341.5 -92.5t212 -260.5t72.5 -393q0 -175 -50.5 -317.5t-140.5 -244.5t-210 -157.5t-259 -58.5zM712 72q138 0 242.5 76.5t163 228.5t58.5 379q0 192 -53 339
t-155.5 230t-249.5 83q-138 0 -242 -74.5t-162 -224.5t-58 -377q0 -191 53 -340t154.5 -234.5t248.5 -85.5zM631 1616l-243 267l66 49l262 -200l262 200l66 -49l-243 -267h-170z" />
    <glyph glyph-name="uni01D2" unicode="&#x1d2;" horiz-adv-x="1150" 
d="M71 562q0 137 43.5 244t117.5 181.5t165.5 113.5t187.5 39q179 0 287.5 -80.5t157.5 -213.5t49 -290q0 -136 -43.5 -243.5t-117.5 -182t-165.5 -113.5t-187.5 -39q-134 0 -228.5 46.5t-153 127.5t-85.5 186.5t-27 223.5zM575 82q101 0 173 52t110.5 155t38.5 255
q0 99 -17.5 188t-55 157.5t-98.5 107.5t-149 39q-102 0 -174.5 -52t-111 -154.5t-38.5 -255.5q0 -100 18 -189t56 -157.5t99.5 -107t148.5 -38.5zM486 1312l-227 368l66 50l250 -287l250 287l66 -50l-227 -368h-178z" />
    <glyph glyph-name="uni01D3" unicode="&#x1d3;" horiz-adv-x="1476" 
d="M758 -16q-193 0 -315.5 71t-180.5 215.5t-58 365.5v742l-150 22v86h490v-86l-172 -22v-760q0 -155 29.5 -258.5t83.5 -164.5t127.5 -87t161.5 -26q128 0 214.5 59t130 175t43.5 286v774l-166 24v86h444v-86l-152 -22v-768q0 -163 -39.5 -281t-111.5 -194.5t-168.5 -113.5
t-210.5 -37zM660 1616l-243 267l66 49l262 -200l262 200l66 -49l-243 -267h-170z" />
    <glyph glyph-name="uni01D4" unicode="&#x1d4;" horiz-adv-x="1243" 
d="M983 -18q-48 0 -74 16.5t-26 67.5v78q-40 -36 -98.5 -74.5t-127 -65t-140.5 -26.5q-184 0 -261.5 103t-77.5 331v588l-118 34v74l242 26h2l36 -24v-674q0 -119 18 -193t67 -108.5t142 -34.5q63 0 119 21t102 50.5t77 56.5v772l-152 34v74l266 26h2l46 -24v-1022h124
l-2 -76q-33 -9 -73 -19.5t-93 -10.5zM497 1312l-227 368l66 50l250 -287l250 287l66 -50l-227 -368h-178z" />
    <glyph glyph-name="uni01D5" unicode="&#x1d5;" horiz-adv-x="1476" 
d="M758 -16q-193 0 -315.5 71t-180.5 215.5t-58 365.5v742l-150 22v86h490v-86l-172 -22v-760q0 -155 29.5 -258.5t83.5 -164.5t127.5 -87t161.5 -26q128 0 214.5 59t130 175t43.5 286v774l-166 24v86h444v-86l-152 -22v-768q0 -163 -39.5 -281t-111.5 -194.5t-168.5 -113.5
t-210.5 -37zM565 1632q-42 0 -68 33t-26 82t28.5 90t79.5 41h2q42 0 68 -33t26 -82t-28.5 -90t-79.5 -41h-2zM911 1632q-42 0 -68 33t-26 82t28.5 90t79.5 41h2q42 0 68 -33t26 -82t-28.5 -90t-79.5 -41h-2zM1009 2081v-111h-526v111h526z" />
    <glyph glyph-name="uni01D6" unicode="&#x1d6;" horiz-adv-x="1243" 
d="M983 -18q-48 0 -74 16.5t-26 67.5v78q-40 -36 -98.5 -74.5t-127 -65t-140.5 -26.5q-184 0 -261.5 103t-77.5 331v588l-118 34v74l242 26h2l36 -24v-674q0 -119 18 -193t67 -108.5t142 -34.5q63 0 119 21t102 50.5t77 56.5v772l-152 34v74l266 26h2l46 -24v-1022h124
l-2 -76q-33 -9 -73 -19.5t-93 -10.5zM370 1317q-49 0 -76.5 33t-27.5 82t30 90t88 41h2q50 0 77 -33t27 -82t-29.5 -90t-88.5 -41h-2zM786 1317q-49 0 -76.5 33t-27.5 82t30 90t88 41h2q50 0 77 -33t27 -82t-29.5 -90t-88.5 -41h-2zM867 1806v-122h-562v122h562z" />
    <glyph glyph-name="uni01D7" unicode="&#x1d7;" horiz-adv-x="1476" 
d="M758 -16q-193 0 -315.5 71t-180.5 215.5t-58 365.5v742l-150 22v86h490v-86l-172 -22v-760q0 -155 29.5 -258.5t83.5 -164.5t127.5 -87t161.5 -26q128 0 214.5 59t130 175t43.5 286v774l-166 24v86h444v-86l-152 -22v-768q0 -163 -39.5 -281t-111.5 -194.5t-168.5 -113.5
t-210.5 -37zM565 1632q-42 0 -68 33t-26 82t28.5 90t79.5 41h2q42 0 68 -33t26 -82t-28.5 -90t-79.5 -41h-2zM911 1632q-42 0 -68 33t-26 82t28.5 90t79.5 41h2q42 0 68 -33t26 -82t-28.5 -90t-79.5 -41h-2zM742 1912l-64 54l240 312l136 -110q-25 -33 -63 -71.5t-82 -75.5
t-87 -66t-78 -43h-2z" />
    <glyph glyph-name="uni01D8" unicode="&#x1d8;" horiz-adv-x="1243" 
d="M983 -18q-48 0 -74 16.5t-26 67.5v78q-40 -36 -98.5 -74.5t-127 -65t-140.5 -26.5q-184 0 -261.5 103t-77.5 331v588l-118 34v74l242 26h2l36 -24v-674q0 -119 18 -193t67 -108.5t142 -34.5q63 0 119 21t102 50.5t77 56.5v772l-152 34v74l266 26h2l46 -24v-1022h124
l-2 -76q-33 -9 -73 -19.5t-93 -10.5zM370 1317q-49 0 -76.5 33t-27.5 82t30 90t88 41h2q50 0 77 -33t27 -82t-29.5 -90t-88.5 -41h-2zM786 1317q-49 0 -76.5 33t-27.5 82t30 90t88 41h2q50 0 77 -33t27 -82t-29.5 -90t-88.5 -41h-2zM533 1660l-64 54l310 386l136 -110
q-19 -32 -66.5 -80.5t-107 -100t-115 -92t-91.5 -57.5h-2z" />
    <glyph glyph-name="uni01D9" unicode="&#x1d9;" horiz-adv-x="1476" 
d="M758 -16q-193 0 -315.5 71t-180.5 215.5t-58 365.5v742l-150 22v86h490v-86l-172 -22v-760q0 -155 29.5 -258.5t83.5 -164.5t127.5 -87t161.5 -26q128 0 214.5 59t130 175t43.5 286v774l-166 24v86h444v-86l-152 -22v-768q0 -163 -39.5 -281t-111.5 -194.5t-168.5 -113.5
t-210.5 -37zM565 1632q-42 0 -68 33t-26 82t28.5 90t79.5 41h2q42 0 68 -33t26 -82t-28.5 -90t-79.5 -41h-2zM911 1632q-42 0 -68 33t-26 82t28.5 90t79.5 41h2q42 0 68 -33t26 -82t-28.5 -90t-79.5 -41h-2zM661 1928l-243 267l66 49l262 -200l262 200l66 -49l-243 -267
h-170z" />
    <glyph glyph-name="uni01DA" unicode="&#x1da;" horiz-adv-x="1243" 
d="M983 -18q-48 0 -74 16.5t-26 67.5v78q-40 -36 -98.5 -74.5t-127 -65t-140.5 -26.5q-184 0 -261.5 103t-77.5 331v588l-118 34v74l242 26h2l36 -24v-674q0 -119 18 -193t67 -108.5t142 -34.5q63 0 119 21t102 50.5t77 56.5v772l-152 34v74l266 26h2l46 -24v-1022h124
l-2 -76q-33 -9 -73 -19.5t-93 -10.5zM370 1317q-49 0 -76.5 33t-27.5 82t30 90t88 41h2q50 0 77 -33t27 -82t-29.5 -90t-88.5 -41h-2zM786 1317q-49 0 -76.5 33t-27.5 82t30 90t88 41h2q50 0 77 -33t27 -82t-29.5 -90t-88.5 -41h-2zM497 1674l-227 368l66 50l250 -287
l250 287l66 -50l-227 -368h-178z" />
    <glyph glyph-name="uni01DB" unicode="&#x1db;" horiz-adv-x="1476" 
d="M758 -16q-193 0 -315.5 71t-180.5 215.5t-58 365.5v742l-150 22v86h490v-86l-172 -22v-760q0 -155 29.5 -258.5t83.5 -164.5t127.5 -87t161.5 -26q128 0 214.5 59t130 175t43.5 286v774l-166 24v86h444v-86l-152 -22v-768q0 -163 -39.5 -281t-111.5 -194.5t-168.5 -113.5
t-210.5 -37zM565 1632q-42 0 -68 33t-26 82t28.5 90t79.5 41h2q42 0 68 -33t26 -82t-28.5 -90t-79.5 -41h-2zM911 1632q-42 0 -68 33t-26 82t28.5 90t79.5 41h2q42 0 68 -33t26 -82t-28.5 -90t-79.5 -41h-2zM758 1912q-34 14 -77.5 43t-87.5 66t-82 75.5t-63 71.5l136 110
l240 -312l-64 -54h-2z" />
    <glyph glyph-name="uni01DC" unicode="&#x1dc;" horiz-adv-x="1243" 
d="M983 -18q-48 0 -74 16.5t-26 67.5v78q-40 -36 -98.5 -74.5t-127 -65t-140.5 -26.5q-184 0 -261.5 103t-77.5 331v588l-118 34v74l242 26h2l36 -24v-674q0 -119 18 -193t67 -108.5t142 -34.5q63 0 119 21t102 50.5t77 56.5v772l-152 34v74l266 26h2l46 -24v-1022h124
l-2 -76q-33 -9 -73 -19.5t-93 -10.5zM370 1317q-49 0 -76.5 33t-27.5 82t30 90t88 41h2q50 0 77 -33t27 -82t-29.5 -90t-88.5 -41h-2zM786 1317q-49 0 -76.5 33t-27.5 82t30 90t88 41h2q50 0 77 -33t27 -82t-29.5 -90t-88.5 -41h-2zM633 1660q-36 17 -91.5 57.5t-115 92
t-106.5 100t-67 80.5l136 110l310 -386l-64 -54h-2z" />
    <glyph glyph-name="uni01DD" unicode="&#x1dd;" horiz-adv-x="1018" 
d="M447 -30q-177 0 -276.5 101.5t-107.5 294.5q0 57 2.5 100t9.5 76h712q0 101 -23 188t-68.5 151.5t-113.5 100.5t-157 36q-85 0 -173 -30.5t-135 -71.5l-32 74q38 39 101 71.5t138.5 51.5t152.5 19q158 0 265.5 -74t162 -205.5t54.5 -302.5q0 -129 -38.5 -235.5
t-107.5 -183.5t-162.5 -119t-203.5 -42zM487 72q60 0 111.5 20t91 64t64 116t31.5 176h-542q-3 -21 -4.5 -50.5t-1.5 -37.5q2 -123 59.5 -205.5t190.5 -82.5z" />
    <glyph glyph-name="uni01DE" unicode="&#x1de;" horiz-adv-x="1408" 
d="M122 104l511 1396h173l478 -1396l130 -18v-86h-488v86l170 18l-103 318h-621l-106 -316l178 -20v-86h-450v86zM958 526l-212 666l-51 175l-56 -181l-233 -660h552zM543 1632q-42 0 -68 33t-26 82t28.5 90t79.5 41h2q42 0 68 -33t26 -82t-28.5 -90t-79.5 -41h-2zM889 1632
q-42 0 -68 33t-26 82t28.5 90t79.5 41h2q42 0 68 -33t26 -82t-28.5 -90t-79.5 -41h-2zM987 2081v-111h-526v111h526z" />
    <glyph glyph-name="uni01DF" unicode="&#x1df;" horiz-adv-x="1042" 
d="M376 -22q-89 0 -165 33t-122.5 102.5t-46.5 178.5q0 105 57.5 176t154 113.5t215.5 62.5t243 22v84q0 99 -21 154t-73 77.5t-146 22.5q-117 0 -205.5 -39.5t-136.5 -66.5l-44 88q18 17 83 52t156 64.5t187 29.5q133 0 212 -38t113.5 -123t34.5 -225v-657h124v-74
q-22 -6 -54 -13t-67 -12t-65 -5q-43 0 -63.5 13t-20.5 71v71q-25 -22 -75.5 -60.5t-120.5 -70t-154 -31.5zM436 96q60 0 138 35.5t138 86.5v354q-166 -1 -275 -34.5t-163 -91.5t-54 -134q0 -80 28.5 -127.5t77.5 -68t110 -20.5zM305 1317q-49 0 -76.5 33t-27.5 82t30 90
t88 41h2q50 0 77 -33t27 -82t-29.5 -90t-88.5 -41h-2zM721 1317q-49 0 -76.5 33t-27.5 82t30 90t88 41h2q50 0 77 -33t27 -82t-29.5 -90t-88.5 -41h-2zM802 1806v-122h-562v122h562z" />
    <glyph glyph-name="uni01E0" unicode="&#x1e0;" horiz-adv-x="1408" 
d="M122 104l511 1396h173l478 -1396l130 -18v-86h-488v86l170 18l-103 318h-621l-106 -316l178 -20v-86h-450v86zM958 526l-212 666l-51 175l-56 -181l-233 -660h552zM715 1632q-55 0 -83 33t-28 82t30.5 90t94.5 41h2q55 0 83 -33t28 -82t-30.5 -90t-94.5 -41h-2zM994 2074
v-111h-526v111h526z" />
    <glyph glyph-name="uni01E1" unicode="&#x1e1;" horiz-adv-x="1042" 
d="M376 -22q-89 0 -165 33t-122.5 102.5t-46.5 178.5q0 105 57.5 176t154 113.5t215.5 62.5t243 22v84q0 99 -21 154t-73 77.5t-146 22.5q-117 0 -205.5 -39.5t-136.5 -66.5l-44 88q18 17 83 52t156 64.5t187 29.5q133 0 212 -38t113.5 -123t34.5 -225v-657h124v-74
q-22 -6 -54 -13t-67 -12t-65 -5q-43 0 -63.5 13t-20.5 71v71q-25 -22 -75.5 -60.5t-120.5 -70t-154 -31.5zM436 96q60 0 138 35.5t138 86.5v354q-166 -1 -275 -34.5t-163 -91.5t-54 -134q0 -80 28.5 -127.5t77.5 -68t110 -20.5zM513 1320q-55 0 -83 33t-28 82t30.5 90
t94.5 41h2q55 0 83 -33t28 -82t-30.5 -90t-94.5 -41h-2zM803 1806v-122h-562v122h562z" />
    <glyph glyph-name="uni01E2" unicode="&#x1e2;" horiz-adv-x="1914" 
d="M-60 0v84l146 20l566 1278l-262 22v82h1354l28 -294h-96l-55 193l-535 11v-584l369 6l24 166h102v-442h-102l-24 172l-369 4v-617l612 17l104 250l96 -30l-64 -338h-1085v84l173 20v336h-540l-140 -336l156 -20v-84h-458zM426 544h496v846h-138l-112 -256zM1223 1769
v-111h-526v111h526z" />
    <glyph glyph-name="uni01E3" unicode="&#x1e3;" horiz-adv-x="1661" 
d="M378 -22q-89 0 -165.5 33t-123.5 102.5t-47 178.5q0 104 58 175t154.5 114t214.5 63t237 22l-1 54q-2 118 -21 180t-68.5 85t-143.5 23q-76 0 -144.5 -19.5t-124.5 -46.5t-95 -48l-42 84q18 17 64 43t108.5 51.5t133.5 42.5t138 17q137 0 216.5 -50t113.5 -136
q35 68 94 111t131.5 63t148.5 20q177 0 277 -101t107 -295q0 -57 -2 -100t-10 -76h-716q0 -101 23.5 -188t70 -151.5t115 -100.5t157.5 -36q86 0 173.5 31t132.5 71l32 -74q-38 -39 -100 -71t-137 -51.5t-151 -19.5q-93 0 -168 26t-132 75.5t-96 118.5q-31 -43 -87.5 -94.5
t-138 -88.5t-186.5 -37zM872 662h546q2 21 3 44t1 44q0 123 -57 205.5t-191 82.5q-60 0 -114 -23t-95.5 -69.5t-66 -117.5t-26.5 -166zM436 96q70 0 133 28.5t111 70.5t72 83q-25 69 -35.5 143t-10.5 159q-121 -1 -212 -21.5t-152 -57t-91.5 -85t-30.5 -104.5
q0 -120 63 -168t153 -48zM1120 1444v-122h-562v122h562z" />
    <glyph glyph-name="uni01E4" unicode="&#x1e4;" horiz-adv-x="1441" 
d="M751 -22q-166 0 -296 57t-219.5 158.5t-136 236t-46.5 288.5q0 188 52.5 334t149.5 246.5t233.5 152t304.5 51.5q77 0 152 -8.5t140.5 -20.5t115 -21.5t74.5 -11.5l-16 -332h-104l-44 230q-15 12 -58.5 28t-113.5 28t-164 12q-170 0 -289.5 -71t-182 -212.5t-62.5 -352.5
q0 -132 28.5 -257t90.5 -224.5t161.5 -158.5t241.5 -59q71 0 134 12t119 33.5t107 49.5v456l-278 20v106h568v-106l-122 -20v-542q-41 -1 -83 -12t-89 -26t-101.5 -29.5t-120.5 -24.5t-146 -10zM802 347v105h643v-105h-643z" />
    <glyph glyph-name="uni01E5" unicode="&#x1e5;" horiz-adv-x="1186" 
d="M1225 -158v-102h-1278v102h1278zM548 -540q-130 0 -220.5 22t-146 62t-80.5 95t-25 121q0 65 26 119.5t68.5 95.5t91.5 65q-45 24 -69.5 65t-24.5 101q0 45 22.5 88t58.5 79t78 58q-91 44 -145.5 124.5t-54.5 196.5q0 122 65.5 209t168 133t212.5 46q87 0 164 -20
t134 -62q21 20 84 51t144 31h57v-148h-219q18 -25 31 -56.5t20 -68t7 -75.5q0 -124 -60.5 -215.5t-161.5 -141.5t-222 -50q-40 0 -77.5 4.5t-72.5 13.5q-36 -28 -61.5 -65t-25.5 -75q0 -78 50 -100.5t170 -22.5h236q128 0 208.5 -34t118 -95.5t37.5 -144.5q0 -82 -45 -155
t-125 -129.5t-186.5 -89t-229.5 -32.5zM558 -438q106 0 203 31t159 88.5t62 138.5q0 56 -18 96.5t-72 62t-162 21.5h-248q-40 0 -77 2.5t-69 9.5q-48 -39 -73 -94t-25 -126q0 -72 29 -123.5t98.5 -79t192.5 -27.5zM571 483q131 0 192.5 72.5t61.5 214.5q0 93 -30.5 153
t-89.5 89.5t-144 29.5q-73 0 -133 -25t-95.5 -83.5t-35.5 -159.5q0 -82 28 -148t88.5 -104.5t157.5 -38.5z" />
    <glyph glyph-name="Gcaron" unicode="&#x1e6;" horiz-adv-x="1441" 
d="M751 -22q-166 0 -296 57t-219.5 158.5t-136 236t-46.5 288.5q0 188 52.5 334t149.5 246.5t233.5 152t304.5 51.5q77 0 152 -8.5t140.5 -20.5t115 -21.5t74.5 -11.5l-16 -332h-104l-44 230q-15 12 -58.5 28t-113.5 28t-164 12q-170 0 -289.5 -71t-182 -212.5t-62.5 -352.5
q0 -132 28.5 -257t90.5 -224.5t161.5 -158.5t241.5 -59q71 0 134 12t119 33.5t107 49.5v456l-278 20v106h568v-106l-122 -20v-542q-41 -1 -83 -12t-89 -26t-101.5 -29.5t-120.5 -24.5t-146 -10zM666 1616l-243 267l66 49l262 -200l262 200l66 -49l-243 -267h-170z" />
    <glyph glyph-name="gcaron" unicode="&#x1e7;" horiz-adv-x="1186" 
d="M548 -540q-130 0 -220.5 22t-146 62t-80.5 95t-25 121q0 65 26 119.5t68.5 95.5t91.5 65q-45 24 -69.5 65t-24.5 101q0 45 22.5 88t58.5 79t78 58q-91 44 -145.5 124.5t-54.5 196.5q0 122 65.5 209t168 133t212.5 46q87 0 164 -20t134 -62q21 20 84 51t144 31h57v-148
h-219q18 -25 31 -56.5t20 -68t7 -75.5q0 -124 -60.5 -215.5t-161.5 -141.5t-222 -50q-40 0 -77.5 4.5t-72.5 13.5q-36 -28 -61.5 -65t-25.5 -75q0 -78 50 -100.5t170 -22.5h236q128 0 208.5 -34t118 -95.5t37.5 -144.5q0 -82 -45 -155t-125 -129.5t-186.5 -89t-229.5 -32.5z
M558 -438q106 0 203 31t159 88.5t62 138.5q0 56 -18 96.5t-72 62t-162 21.5h-248q-40 0 -77 2.5t-69 9.5q-48 -39 -73 -94t-25 -126q0 -72 29 -123.5t98.5 -79t192.5 -27.5zM571 483q131 0 192.5 72.5t61.5 214.5q0 93 -30.5 153t-89.5 89.5t-144 29.5q-73 0 -133 -25
t-95.5 -83.5t-35.5 -159.5q0 -82 28 -148t88.5 -104.5t157.5 -38.5zM491 1312l-227 368l66 50l250 -287l250 287l66 -50l-227 -368h-178z" />
    <glyph glyph-name="uni01E8" unicode="&#x1e8;" horiz-adv-x="1401" 
d="M79 0v86l172 18v1274l-168 22v86h504v-86l-172 -22v-727l626 727l-170 22v86h464v-86l-146 -22l-461 -514q51 -43 107 -114.5t114 -156t112.5 -169.5t102.5 -156t84.5 -115t56.5 -47l94 -22v-84h-240q-26 0 -62 42t-79 111t-91 153t-98 169t-99.5 159t-96.5 121
l-218 -247v-404l188 -20v-84h-524zM646 1616l-243 267l66 49l262 -200l262 200l66 -49l-243 -267h-170z" />
    <glyph glyph-name="uni01E9" unicode="&#x1e9;" horiz-adv-x="1249" 
d="M83 0v86l132 16v1410l-164 18v74l284 34h2l38 -26v-1010l-4 -126l486 526l-156 28v80h472v-80l-154 -28l-318 -336l398 -566l132 -14v-86h-458v86l138 16l-314 474l-226 -236l4 -84v-154l156 -16v-86h-448zM197 1712l-243 267l66 49l262 -200l262 200l66 -49l-243 -267
h-170z" />
    <glyph glyph-name="uni01EA" unicode="&#x1ea;" horiz-adv-x="1432" 
d="M702 -22q-206 -3 -347 93.5t-213 268t-72 392.5q0 177 51 319t142.5 243t212.5 154.5t260 53.5q202 0 341.5 -92.5t212 -260.5t72.5 -393q0 -175 -50.5 -317.5t-140.5 -244.5t-210 -157.5t-259 -58.5zM712 72q138 0 242.5 76.5t163 228.5t58.5 379q0 192 -53 339
t-155.5 230t-249.5 83q-138 0 -242 -74.5t-162 -224.5t-58 -377q0 -191 53 -340t154.5 -234.5t248.5 -85.5zM729 -496q-61 0 -112 21.5t-81.5 63.5t-30.5 102q0 71 35 130t87 105t102 76l60 8l76 -8q-72 -30 -118.5 -78t-69 -101t-22.5 -98q0 -52 25.5 -81t82.5 -29
q52 0 98 18.5t84 47.5l30 -84q-29 -36 -94.5 -64.5t-151.5 -28.5z" />
    <glyph glyph-name="uni01EB" unicode="&#x1eb;" horiz-adv-x="1150" 
d="M71 562q0 137 43.5 244t117.5 181.5t165.5 113.5t187.5 39q179 0 287.5 -80.5t157.5 -213.5t49 -290q0 -136 -43.5 -243.5t-117.5 -182t-165.5 -113.5t-187.5 -39q-134 0 -228.5 46.5t-153 127.5t-85.5 186.5t-27 223.5zM575 82q101 0 173 52t110.5 155t38.5 255
q0 99 -17.5 188t-55 157.5t-98.5 107.5t-149 39q-102 0 -174.5 -52t-111 -154.5t-38.5 -255.5q0 -100 18 -189t56 -157.5t99.5 -107t148.5 -38.5zM536 -496q-46 0 -98 16t-89 56t-37 110q0 49 22.5 96t60 88.5t84.5 75.5t96 56l60 8l76 -8q-68 -30 -124.5 -73t-90.5 -96
t-34 -113q0 -52 35.5 -78.5t92.5 -26.5q52 0 95 17t89 46l30 -81q-34 -24 -74.5 -45t-88 -34.5t-105.5 -13.5z" />
    <glyph glyph-name="uni01EC" unicode="&#x1ec;" horiz-adv-x="1432" 
d="M702 -22q-206 -3 -347 93.5t-213 268t-72 392.5q0 177 51 319t142.5 243t212.5 154.5t260 53.5q202 0 341.5 -92.5t212 -260.5t72.5 -393q0 -175 -50.5 -317.5t-140.5 -244.5t-210 -157.5t-259 -58.5zM712 72q138 0 242.5 76.5t163 228.5t58.5 379q0 192 -53 339
t-155.5 230t-249.5 83q-138 0 -242 -74.5t-162 -224.5t-58 -377q0 -191 53 -340t154.5 -234.5t248.5 -85.5zM729 -496q-61 0 -112 21.5t-81.5 63.5t-30.5 102q0 71 35 130t87 105t102 76l60 8l76 -8q-72 -30 -118.5 -78t-69 -101t-22.5 -98q0 -52 25.5 -81t82.5 -29
q52 0 98 18.5t84 47.5l30 -84q-29 -36 -94.5 -64.5t-151.5 -28.5zM979 1769v-111h-526v111h526z" />
    <glyph glyph-name="uni01ED" unicode="&#x1ed;" horiz-adv-x="1150" 
d="M71 562q0 137 43.5 244t117.5 181.5t165.5 113.5t187.5 39q179 0 287.5 -80.5t157.5 -213.5t49 -290q0 -136 -43.5 -243.5t-117.5 -182t-165.5 -113.5t-187.5 -39q-134 0 -228.5 46.5t-153 127.5t-85.5 186.5t-27 223.5zM575 82q101 0 173 52t110.5 155t38.5 255
q0 99 -17.5 188t-55 157.5t-98.5 107.5t-149 39q-102 0 -174.5 -52t-111 -154.5t-38.5 -255.5q0 -100 18 -189t56 -157.5t99.5 -107t148.5 -38.5zM536 -496q-46 0 -98 16t-89 56t-37 110q0 49 22.5 96t60 88.5t84.5 75.5t96 56l60 8l76 -8q-68 -30 -124.5 -73t-90.5 -96
t-34 -113q0 -52 35.5 -78.5t92.5 -26.5q52 0 95 17t89 46l30 -81q-34 -24 -74.5 -45t-88 -34.5t-105.5 -13.5zM856 1444v-122h-562v122h562z" />
    <glyph glyph-name="uni01EE" unicode="&#x1ee;" horiz-adv-x="1112" 
d="M454 -12q-110 0 -187.5 14.5t-127 31t-75.5 22.5l38 320h94l42 -236q10 -4 35 -14.5t73.5 -20t129.5 -9.5q104 0 178 28t121 76.5t69 110.5t22 129q0 103 -38.5 174t-129 109.5t-246.5 44.5h-42h-42l-24 70l361 417l95 109l-574 -6l-60 -206h-102l8 334h894l30 -84
l-494 -560q50 0 98.5 -3t94.5 -10q77 -12 142.5 -37t114.5 -68t76.5 -106t27.5 -152q0 -110 -43.5 -198.5t-123.5 -151t-190.5 -95.5t-244.5 -33zM471 1616l-243 267l66 49l262 -200l262 200l66 -49l-243 -267h-170z" />
    <glyph glyph-name="uni01EF" unicode="&#x1ef;" horiz-adv-x="1047" 
d="M454 -490q-122 0 -197.5 14.5t-120 36.5t-74.5 43l14 328h105l36 -266q36 -31 84 -44.5t131 -13.5q115 0 198.5 46.5t129 135.5t45.5 214q0 80 -20.5 145.5t-59.5 113.5t-94.5 74t-125.5 26t-125.5 -14t-83.5 -37l-46 57l418 515l126 117l-572 -17l-39 -186h-109v306h879
l32 -74l-476 -579q164 13 270.5 -45.5t158.5 -160t52 -218.5q0 -119 -42 -214.5t-116.5 -163t-171 -103.5t-206.5 -36zM441 1312l-227 368l66 50l250 -287l250 287l66 -50l-227 -368h-178z" />
    <glyph glyph-name="uni01F0" unicode="&#x1f0;" horiz-adv-x="624" 
d="M100 -486q-10 -1 -35 -0.5t-49 2.5t-30 6l-8 82q15 -1 46.5 3.5t67.5 16.5q61 19 95 79t47.5 149.5t13.5 197.5l-2 920l-160 36v96l278 32h4l38 -32v-1090q0 -124 -20.5 -215t-60.5 -151.5t-96.5 -92.5t-128.5 -39zM223 1312l-227 368l66 50l250 -287l250 287l66 -50
l-227 -368h-178z" />
    <glyph glyph-name="uni01F1" unicode="&#x1f1;" horiz-adv-x="2730" 
d="M661 -16q-36 1 -75 3.5t-80.5 5.5t-84 5t-86.5 2h-256v86l172 18v1274l-160 22v86h242q61 0 119.5 4t116.5 8t118 4q194 0 333 -51t227 -145.5t130 -225.5t42 -292q0 -184 -55.5 -333.5t-157 -256t-240 -162.5t-305.5 -52zM685 82q161 2 287 79t198.5 225.5t72.5 365.5
q0 164 -38 286.5t-114 204t-190 122.5t-266 41q-45 0 -84.5 -2.5t-73.5 -5.5t-62 -4v-1296q48 -9 92.5 -12.5t88 -4t89.5 0.5zM1556 0l-48 78l802 1172l114 150l-640 -20l-98 -260l-92 10l42 362h942l44 -74l-792 -1164l-130 -160l748 34l100 316l96 -22l-48 -422h-1040z
" />
    <glyph glyph-name="uni01F2" unicode="&#x1f2;" horiz-adv-x="2561" 
d="M661 -16q-36 1 -75 3.5t-80.5 5.5t-84 5t-86.5 2h-256v86l172 18v1274l-160 22v86h242q61 0 119.5 4t116.5 8t118 4q194 0 333 -51t227 -145.5t130 -225.5t42 -292q0 -184 -55.5 -333.5t-157 -256t-240 -162.5t-305.5 -52zM685 82q161 2 287 79t198.5 225.5t72.5 365.5
q0 164 -38 286.5t-114 204t-190 122.5t-266 41q-45 0 -84.5 -2.5t-73.5 -5.5t-62 -4v-1296q48 -9 92.5 -12.5t88 -4t89.5 0.5zM2299 1006l-546 -14l-28 -188h-110v306h834l34 -74l-634 -820l-125 -114l590 18l88 218l102 -12l-48 -326h-876l-36 76l630 814z" />
    <glyph glyph-name="uni01F3" unicode="&#x1f3;" horiz-adv-x="2264" 
d="M508 -22q-85 0 -164 33t-140.5 101t-97.5 171.5t-36 244.5q0 171 69 309.5t197 220.5t304 82q59 0 113 -6.5t99 -17.5v396l-208 20v72l328 34h4l38 -28v-1520h122v-78q-39 -9 -87 -19.5t-105 -10.5q-40 0 -62 14t-22 72v70q-35 -39 -86.5 -76t-118 -60.5t-147.5 -23.5z
M574 104q63 0 118 21t96.5 51.5t63.5 59.5v736q-16 27 -82.5 47.5t-143.5 20.5q-107 0 -192 -50t-135.5 -157t-52.5 -277q-2 -162 43 -261.5t120.5 -145t164.5 -45.5zM2002 1006l-546 -14l-28 -188h-110v306h834l34 -74l-634 -820l-125 -114l590 18l88 218l102 -12l-48 -326
h-876l-36 76l630 814z" />
    <glyph glyph-name="uni01F4" unicode="&#x1f4;" horiz-adv-x="1441" 
d="M751 -22q-166 0 -296 57t-219.5 158.5t-136 236t-46.5 288.5q0 188 52.5 334t149.5 246.5t233.5 152t304.5 51.5q77 0 152 -8.5t140.5 -20.5t115 -21.5t74.5 -11.5l-16 -332h-104l-44 230q-15 12 -58.5 28t-113.5 28t-164 12q-170 0 -289.5 -71t-182 -212.5t-62.5 -352.5
q0 -132 28.5 -257t90.5 -224.5t161.5 -158.5t241.5 -59q71 0 134 12t119 33.5t107 49.5v456l-278 20v106h568v-106l-122 -20v-542q-41 -1 -83 -12t-89 -26t-101.5 -29.5t-120.5 -24.5t-146 -10zM747 1600l-64 54l240 312l136 -110q-25 -33 -63 -71.5t-82 -75.5t-87 -66
t-78 -43h-2z" />
    <glyph glyph-name="uni01F5" unicode="&#x1f5;" horiz-adv-x="1186" 
d="M548 -540q-130 0 -220.5 22t-146 62t-80.5 95t-25 121q0 65 26 119.5t68.5 95.5t91.5 65q-45 24 -69.5 65t-24.5 101q0 45 22.5 88t58.5 79t78 58q-91 44 -145.5 124.5t-54.5 196.5q0 122 65.5 209t168 133t212.5 46q87 0 164 -20t134 -62q21 20 84 51t144 31h57v-148
h-219q18 -25 31 -56.5t20 -68t7 -75.5q0 -124 -60.5 -215.5t-161.5 -141.5t-222 -50q-40 0 -77.5 4.5t-72.5 13.5q-36 -28 -61.5 -65t-25.5 -75q0 -78 50 -100.5t170 -22.5h236q128 0 208.5 -34t118 -95.5t37.5 -144.5q0 -82 -45 -155t-125 -129.5t-186.5 -89t-229.5 -32.5z
M558 -438q106 0 203 31t159 88.5t62 138.5q0 56 -18 96.5t-72 62t-162 21.5h-248q-40 0 -77 2.5t-69 9.5q-48 -39 -73 -94t-25 -126q0 -72 29 -123.5t98.5 -79t192.5 -27.5zM571 483q131 0 192.5 72.5t61.5 214.5q0 93 -30.5 153t-89.5 89.5t-144 29.5q-73 0 -133 -25
t-95.5 -83.5t-35.5 -159.5q0 -82 28 -148t88.5 -104.5t157.5 -38.5zM527 1298l-64 54l310 386l136 -110q-19 -32 -66.5 -80.5t-107 -100t-115 -92t-91.5 -57.5h-2z" />
    <glyph glyph-name="uni01F8" unicode="&#x1f8;" horiz-adv-x="1526" 
d="M69 0v86l160 20v1272q-26 4 -53 7.5t-53.5 7.5t-53.5 7v86h322l708 -1026l114 -200v1118l-176 22v86h456v-86l-164 -22v-1378h-104l-716 1030l-164 266v-1192l182 -18v-86h-458zM795 1600q-34 14 -77.5 43t-87.5 66t-82 75.5t-63 71.5l136 110l240 -312l-64 -54h-2z" />
    <glyph glyph-name="uni01F9" unicode="&#x1f9;" horiz-adv-x="1306" 
d="M216 102v876l-154 34v90l254 32h6l38 -32v-88l-2 -50q44 38 114.5 78t151.5 67t156 27q130 0 199 -50.5t95 -154.5t26 -265v-566l150 -14v-86h-446v86l134 14v568q0 116 -16 192.5t-64.5 114t-145.5 37.5q-57 0 -118.5 -20t-118 -51t-97.5 -63v-776l146 -16v-86h-442v86z
M682 1298q-36 17 -91.5 57.5t-115 92t-106.5 100t-67 80.5l136 110l310 -386l-64 -54h-2z" />
    <glyph glyph-name="Aringacute" unicode="&#x1fa;" horiz-adv-x="1408" 
d="M122 104l511 1396h173l478 -1396l130 -18v-86h-488v86l170 18l-103 318h-621l-106 -316l178 -20v-86h-450v86zM958 526l-212 666l-51 175l-56 -181l-233 -660h552zM723 1593q-108 0 -175.5 65t-67.5 169t67.5 169t175.5 65q37 0 66 -7l181 225l104 -86
q-13 -21 -44.5 -53.5t-71 -67t-76.5 -61.5q84 -67 84 -184q0 -104 -67.5 -169t-175.5 -65zM723 1676q65 0 104.5 40.5t39.5 110.5t-39.5 110.5t-104.5 40.5t-104.5 -40.5t-39.5 -110.5t39.5 -110.5t104.5 -40.5z" />
    <glyph glyph-name="aringacute" unicode="&#x1fb;" horiz-adv-x="1042" 
d="M376 -22q-89 0 -165 33t-122.5 102.5t-46.5 178.5q0 105 57.5 176t154 113.5t215.5 62.5t243 22v84q0 99 -21 154t-73 77.5t-146 22.5q-117 0 -205.5 -39.5t-136.5 -66.5l-44 88q18 17 83 52t156 64.5t187 29.5q133 0 212 -38t113.5 -123t34.5 -225v-657h124v-74
q-22 -6 -54 -13t-67 -12t-65 -5q-43 0 -63.5 13t-20.5 71v71q-25 -22 -75.5 -60.5t-120.5 -70t-154 -31.5zM436 96q60 0 138 35.5t138 86.5v354q-166 -1 -275 -34.5t-163 -91.5t-54 -134q0 -80 28.5 -127.5t77.5 -68t110 -20.5zM521 1280q-108 0 -175.5 65t-67.5 169
t67.5 169t175.5 65q37 0 66 -7l181 225l104 -86q-13 -21 -44.5 -53.5t-71 -67t-76.5 -61.5q84 -67 84 -184q0 -104 -67.5 -169t-175.5 -65zM521 1363q65 0 104.5 40.5t39.5 110.5t-39.5 110.5t-104.5 40.5t-104.5 -40.5t-39.5 -110.5t39.5 -110.5t104.5 -40.5z" />
    <glyph glyph-name="AEacute" unicode="&#x1fc;" horiz-adv-x="1914" 
d="M-60 0v84l146 20l566 1278l-262 22v82h1354l28 -294h-96l-55 193l-535 11v-584l369 6l24 166h102v-442h-102l-24 172l-369 4v-617l612 17l104 250l96 -30l-64 -338h-1085v84l173 20v336h-540l-140 -336l156 -20v-84h-458zM426 544h496v846h-138l-112 -256zM956 1600
l-64 54l240 312l136 -110q-25 -33 -63 -71.5t-82 -75.5t-87 -66t-78 -43h-2z" />
    <glyph glyph-name="aeacute" unicode="&#x1fd;" horiz-adv-x="1661" 
d="M378 -22q-89 0 -165.5 33t-123.5 102.5t-47 178.5q0 104 58 175t154.5 114t214.5 63t237 22l-1 54q-2 118 -21 180t-68.5 85t-143.5 23q-76 0 -144.5 -19.5t-124.5 -46.5t-95 -48l-42 84q18 17 64 43t108.5 51.5t133.5 42.5t138 17q137 0 216.5 -50t113.5 -136
q35 68 94 111t131.5 63t148.5 20q177 0 277 -101t107 -295q0 -57 -2 -100t-10 -76h-716q0 -101 23.5 -188t70 -151.5t115 -100.5t157.5 -36q86 0 173.5 31t132.5 71l32 -74q-38 -39 -100 -71t-137 -51.5t-151 -19.5q-93 0 -168 26t-132 75.5t-96 118.5q-31 -43 -87.5 -94.5
t-138 -88.5t-186.5 -37zM872 662h546q2 21 3 44t1 44q0 123 -57 205.5t-191 82.5q-60 0 -114 -23t-95.5 -69.5t-66 -117.5t-26.5 -166zM436 96q70 0 133 28.5t111 70.5t72 83q-25 69 -35.5 143t-10.5 159q-121 -1 -212 -21.5t-152 -57t-91.5 -85t-30.5 -104.5
q0 -120 63 -168t153 -48zM786 1298l-64 54l310 386l136 -110q-19 -32 -66.5 -80.5t-107 -100t-115 -92t-91.5 -57.5h-2z" />
    <glyph glyph-name="Oslashacute" unicode="&#x1fe;" horiz-adv-x="1432" 
d="M1044 1667l72 -28l-730 -1836l-72 26zM702 -22q-206 -3 -347 93.5t-213 268t-72 392.5q0 177 51 319t142.5 243t212.5 154.5t260 53.5q202 0 341.5 -92.5t212 -260.5t72.5 -393q0 -175 -50.5 -317.5t-140.5 -244.5t-210 -157.5t-259 -58.5zM712 72q138 0 242.5 76.5
t163 228.5t58.5 379q0 192 -53 339t-155.5 230t-249.5 83q-138 0 -242 -74.5t-162 -224.5t-58 -377q0 -191 53 -340t154.5 -234.5t248.5 -85.5zM712 1600l-64 54l240 312l136 -110q-25 -33 -63 -71.5t-82 -75.5t-87 -66t-78 -43h-2z" />
    <glyph glyph-name="oslashacute" unicode="&#x1ff;" horiz-adv-x="1150" 
d="M286 -160l-70 36l87 167q-124 74 -178 213.5t-54 305.5q0 137 43.5 244t117.5 182t165.5 114t187.5 38q56 -1 104.5 -9.5t90.5 -24.5l82 170l70 -34l-82 -170q122 -75 175.5 -213t53.5 -303q0 -136 -43.5 -243.5t-117.5 -182t-165.5 -113.5t-187.5 -39q-55 0 -102.5 8
t-88.5 23zM369 169l185 399l176 426q-31 20 -69.5 31t-83.5 11q-102 0 -174.5 -52t-111 -154.5t-38.5 -255.5q0 -124 27.5 -230.5t88.5 -174.5zM575 82q101 0 173 52t110.5 155t38.5 255q0 119 -25 223.5t-82 172.5l-177 -391l-182 -430q30 -18 66 -27.5t78 -9.5zM522 1298
l-64 54l310 386l136 -110q-19 -32 -66.5 -80.5t-107 -100t-115 -92t-91.5 -57.5h-2z" />
    <glyph glyph-name="uni0200" unicode="&#x200;" horiz-adv-x="1408" 
d="M122 104l511 1396h173l478 -1396l130 -18v-86h-488v86l170 18l-103 318h-621l-106 -316l178 -20v-86h-450v86zM958 526l-212 666l-51 175l-56 -181l-233 -660h552zM559 1604q-34 21 -75 51t-83.5 66.5t-81.5 76t-69 79.5l115 93l261 -304l-65 -62h-2zM923 1604
q-45 28 -97 71.5t-102 96t-90 105.5l115 93l240 -312l-64 -54h-2z" />
    <glyph glyph-name="uni0201" unicode="&#x201;" horiz-adv-x="1042" 
d="M376 -22q-89 0 -165 33t-122.5 102.5t-46.5 178.5q0 105 57.5 176t154 113.5t215.5 62.5t243 22v84q0 99 -21 154t-73 77.5t-146 22.5q-117 0 -205.5 -39.5t-136.5 -66.5l-44 88q18 17 83 52t156 64.5t187 29.5q133 0 212 -38t113.5 -123t34.5 -225v-657h124v-74
q-22 -6 -54 -13t-67 -12t-65 -5q-43 0 -63.5 13t-20.5 71v71q-25 -22 -75.5 -60.5t-120.5 -70t-154 -31.5zM436 96q60 0 138 35.5t138 86.5v354q-166 -1 -275 -34.5t-163 -91.5t-54 -134q0 -80 28.5 -127.5t77.5 -68t110 -20.5zM332 1298q-27 23 -67 65t-81.5 93.5
t-75 101.5t-47.5 87l139 93l212 -386l-78 -54h-2zM708 1298q-27 23 -67 65t-81.5 93.5t-75 101.5t-47.5 87l139 93l212 -386l-78 -54h-2z" />
    <glyph glyph-name="uni0202" unicode="&#x202;" horiz-adv-x="1408" 
d="M122 104l511 1396h173l478 -1396l130 -18v-86h-488v86l170 18l-103 318h-621l-106 -316l178 -20v-86h-450v86zM958 526l-212 666l-51 175l-56 -181l-233 -660h552zM723 1944q95 0 164 -34t106 -95.5t37 -142.5q0 -10 -1 -22t-3 -24h-90v15t-2 19q-5 36 -25 71t-64.5 58
t-121.5 23t-121 -23t-64.5 -58t-25.5 -71q-1 -10 -1.5 -19t-0.5 -15h-90q-2 12 -3 24t-1 22q0 81 37 142.5t106 95.5t164 34z" />
    <glyph glyph-name="uni0203" unicode="&#x203;" horiz-adv-x="1042" 
d="M376 -22q-89 0 -165 33t-122.5 102.5t-46.5 178.5q0 105 57.5 176t154 113.5t215.5 62.5t243 22v84q0 99 -21 154t-73 77.5t-146 22.5q-117 0 -205.5 -39.5t-136.5 -66.5l-44 88q18 17 83 52t156 64.5t187 29.5q133 0 212 -38t113.5 -123t34.5 -225v-657h124v-74
q-22 -6 -54 -13t-67 -12t-65 -5q-43 0 -63.5 13t-20.5 71v71q-25 -22 -75.5 -60.5t-120.5 -70t-154 -31.5zM436 96q60 0 138 35.5t138 86.5v354q-166 -1 -275 -34.5t-163 -91.5t-54 -134q0 -80 28.5 -127.5t77.5 -68t110 -20.5zM521 1648q100 0 171 -38.5t108.5 -103
t37.5 -144.5q0 -9 -1 -20t-3 -22h-90v13t-2 18q-6 38 -26.5 77.5t-66.5 66t-128 26.5t-128 -26.5t-66.5 -66t-26.5 -77.5q-1 -10 -1.5 -18t-0.5 -13h-90q-2 11 -3 22t-1 20q0 80 37.5 144.5t108.5 103t171 38.5z" />
    <glyph glyph-name="uni0204" unicode="&#x204;" horiz-adv-x="1246" 
d="M251 104v1274l-168 22v86h1002l28 -294h-96l-62 192l-540 10v-582l368 6l26 166h100v-442h-100l-26 170l-368 6v-616l609 16l110 257l96 -30l-67 -345h-1084v86zM479 1604q-34 21 -75 51t-83.5 66.5t-81.5 76t-69 79.5l115 93l261 -304l-65 -62h-2zM843 1604
q-45 28 -97 71.5t-102 96t-90 105.5l115 93l240 -312l-64 -54h-2z" />
    <glyph glyph-name="uni0205" unicode="&#x205;" horiz-adv-x="1018" 
d="M541 -22q-158 0 -265.5 74t-162 205.5t-54.5 302.5q0 129 38.5 235.5t107.5 183.5t162.5 119t203.5 42q177 0 277 -101t107 -295q0 -57 -2 -100t-10 -76h-712q0 -101 23 -188t68.5 -151.5t113.5 -100.5t157 -36q86 0 174 31t134 71l32 -74q-38 -39 -100.5 -71
t-138.5 -51.5t-153 -19.5zM233 662h542q3 16 4.5 43t1.5 45q0 123 -58 205.5t-192 82.5q-60 0 -111.5 -20t-91 -64t-64 -116t-31.5 -176zM374 1298q-27 23 -67 65t-81.5 93.5t-75 101.5t-47.5 87l139 93l212 -386l-78 -54h-2zM750 1298q-27 23 -67 65t-81.5 93.5t-75 101.5
t-47.5 87l139 93l212 -386l-78 -54h-2z" />
    <glyph glyph-name="uni0206" unicode="&#x206;" horiz-adv-x="1246" 
d="M251 104v1274l-168 22v86h1002l28 -294h-96l-62 192l-540 10v-582l368 6l26 166h100v-442h-100l-26 170l-368 6v-616l609 16l110 257l96 -30l-67 -345h-1084v86zM643 1944q95 0 164 -34t106 -95.5t37 -142.5q0 -10 -1 -22t-3 -24h-90v15t-2 19q-5 36 -25 71t-64.5 58
t-121.5 23t-121 -23t-64.5 -58t-25.5 -71q-1 -10 -1.5 -19t-0.5 -15h-90q-2 12 -3 24t-1 22q0 81 37 142.5t106 95.5t164 34z" />
    <glyph glyph-name="uni0207" unicode="&#x207;" horiz-adv-x="1018" 
d="M541 -22q-158 0 -265.5 74t-162 205.5t-54.5 302.5q0 129 38.5 235.5t107.5 183.5t162.5 119t203.5 42q177 0 277 -101t107 -295q0 -57 -2 -100t-10 -76h-712q0 -101 23 -188t68.5 -151.5t113.5 -100.5t157 -36q86 0 174 31t134 71l32 -74q-38 -39 -100.5 -71
t-138.5 -51.5t-153 -19.5zM233 662h542q3 16 4.5 43t1.5 45q0 123 -58 205.5t-192 82.5q-60 0 -111.5 -20t-91 -64t-64 -116t-31.5 -176zM563 1648q100 0 171 -38.5t108.5 -103t37.5 -144.5q0 -9 -1 -20t-3 -22h-90v13t-2 18q-6 38 -26.5 77.5t-66.5 66t-128 26.5
t-128 -26.5t-66.5 -66t-26.5 -77.5q-1 -10 -1.5 -18t-0.5 -13h-90q-2 11 -3 22t-1 20q0 80 37.5 144.5t108.5 103t171 38.5z" />
    <glyph glyph-name="uni0208" unicode="&#x208;" horiz-adv-x="711" 
d="M273 104v1274l-194 22v86h553v-86l-194 -22v-1274l194 -20v-84h-553v86zM192 1604q-34 21 -75 51t-83.5 66.5t-81.5 76t-69 79.5l115 93l261 -304l-65 -62h-2zM556 1604q-45 28 -97 71.5t-102 96t-90 105.5l115 93l240 -312l-64 -54h-2z" />
    <glyph glyph-name="uni0209" unicode="&#x209;" horiz-adv-x="624" 
d="M62 0v86l176 16v876l-156 34v90l274 32h4l40 -32v-1002l174 -14v-86h-512zM126 1298q-27 23 -67 65t-81.5 93.5t-75 101.5t-47.5 87l139 93l212 -386l-78 -54h-2zM502 1298q-27 23 -67 65t-81.5 93.5t-75 101.5t-47.5 87l139 93l212 -386l-78 -54h-2z" />
    <glyph glyph-name="uni020A" unicode="&#x20a;" horiz-adv-x="711" 
d="M273 104v1274l-194 22v86h553v-86l-194 -22v-1274l194 -20v-84h-553v86zM356 1944q95 0 164 -34t106 -95.5t37 -142.5q0 -10 -1 -22t-3 -24h-90v15t-2 19q-5 36 -25 71t-64.5 58t-121.5 23t-121 -23t-64.5 -58t-25.5 -71q-1 -10 -1.5 -19t-0.5 -15h-90q-2 12 -3 24t-1 22
q0 81 37 142.5t106 95.5t164 34z" />
    <glyph glyph-name="uni020B" unicode="&#x20b;" horiz-adv-x="624" 
d="M62 0v86l176 16v876l-156 34v90l274 32h4l40 -32v-1002l174 -14v-86h-512zM315 1648q100 0 171 -38.5t108.5 -103t37.5 -144.5q0 -9 -1 -20t-3 -22h-90v13t-2 18q-6 38 -26.5 77.5t-66.5 66t-128 26.5t-128 -26.5t-66.5 -66t-26.5 -77.5q-1 -10 -1.5 -18t-0.5 -13h-90
q-2 11 -3 22t-1 20q0 80 37.5 144.5t108.5 103t171 38.5z" />
    <glyph glyph-name="uni020C" unicode="&#x20c;" horiz-adv-x="1432" 
d="M702 -22q-206 -3 -347 93.5t-213 268t-72 392.5q0 177 51 319t142.5 243t212.5 154.5t260 53.5q202 0 341.5 -92.5t212 -260.5t72.5 -393q0 -175 -50.5 -317.5t-140.5 -244.5t-210 -157.5t-259 -58.5zM712 72q138 0 242.5 76.5t163 228.5t58.5 379q0 192 -53 339
t-155.5 230t-249.5 83q-138 0 -242 -74.5t-162 -224.5t-58 -377q0 -191 53 -340t154.5 -234.5t248.5 -85.5zM552 1604q-34 21 -75 51t-83.5 66.5t-81.5 76t-69 79.5l115 93l261 -304l-65 -62h-2zM916 1604q-45 28 -97 71.5t-102 96t-90 105.5l115 93l240 -312l-64 -54h-2z
" />
    <glyph glyph-name="uni020D" unicode="&#x20d;" horiz-adv-x="1150" 
d="M71 562q0 137 43.5 244t117.5 181.5t165.5 113.5t187.5 39q179 0 287.5 -80.5t157.5 -213.5t49 -290q0 -136 -43.5 -243.5t-117.5 -182t-165.5 -113.5t-187.5 -39q-134 0 -228.5 46.5t-153 127.5t-85.5 186.5t-27 223.5zM575 82q101 0 173 52t110.5 155t38.5 255
q0 99 -17.5 188t-55 157.5t-98.5 107.5t-149 39q-102 0 -174.5 -52t-111 -154.5t-38.5 -255.5q0 -100 18 -189t56 -157.5t99.5 -107t148.5 -38.5zM386 1298q-27 23 -67 65t-81.5 93.5t-75 101.5t-47.5 87l139 93l212 -386l-78 -54h-2zM762 1298q-27 23 -67 65t-81.5 93.5
t-75 101.5t-47.5 87l139 93l212 -386l-78 -54h-2z" />
    <glyph glyph-name="uni020E" unicode="&#x20e;" horiz-adv-x="1432" 
d="M702 -22q-206 -3 -347 93.5t-213 268t-72 392.5q0 177 51 319t142.5 243t212.5 154.5t260 53.5q202 0 341.5 -92.5t212 -260.5t72.5 -393q0 -175 -50.5 -317.5t-140.5 -244.5t-210 -157.5t-259 -58.5zM712 72q138 0 242.5 76.5t163 228.5t58.5 379q0 192 -53 339
t-155.5 230t-249.5 83q-138 0 -242 -74.5t-162 -224.5t-58 -377q0 -191 53 -340t154.5 -234.5t248.5 -85.5zM716 1944q95 0 164 -34t106 -95.5t37 -142.5q0 -10 -1 -22t-3 -24h-90v15t-2 19q-5 36 -25 71t-64.5 58t-121.5 23t-121 -23t-64.5 -58t-25.5 -71q-1 -10 -1.5 -19
t-0.5 -15h-90q-2 12 -3 24t-1 22q0 81 37 142.5t106 95.5t164 34z" />
    <glyph glyph-name="uni020F" unicode="&#x20f;" horiz-adv-x="1150" 
d="M71 562q0 137 43.5 244t117.5 181.5t165.5 113.5t187.5 39q179 0 287.5 -80.5t157.5 -213.5t49 -290q0 -136 -43.5 -243.5t-117.5 -182t-165.5 -113.5t-187.5 -39q-134 0 -228.5 46.5t-153 127.5t-85.5 186.5t-27 223.5zM575 82q101 0 173 52t110.5 155t38.5 255
q0 99 -17.5 188t-55 157.5t-98.5 107.5t-149 39q-102 0 -174.5 -52t-111 -154.5t-38.5 -255.5q0 -100 18 -189t56 -157.5t99.5 -107t148.5 -38.5zM575 1648q100 0 171 -38.5t108.5 -103t37.5 -144.5q0 -9 -1 -20t-3 -22h-90v13t-2 18q-6 38 -26.5 77.5t-66.5 66t-128 26.5
t-128 -26.5t-66.5 -66t-26.5 -77.5q-1 -10 -1.5 -18t-0.5 -13h-90q-2 11 -3 22t-1 20q0 80 37.5 144.5t108.5 103t171 38.5z" />
    <glyph glyph-name="uni0210" unicode="&#x210;" horiz-adv-x="1365" 
d="M79 0v86l172 18v1276l-160 24v82h244q72 0 131 4t106 8t83 4q188 0 299 -46.5t159 -134t48 -211.5q0 -94 -35.5 -180t-102.5 -150.5t-162 -93.5q38 -23 75.5 -72.5t74.5 -113.5t71.5 -130.5t66.5 -124.5t61 -95.5t53 -43.5l84 -22v-84h-218q-25 0 -56 42.5t-66.5 111.5
t-74 148.5t-78.5 154t-79.5 130t-77.5 73.5h-64h-86t-81.5 0.5t-50.5 1.5v-558l206 -18v-86h-542zM685 758q89 0 157 37t106.5 112t38.5 189q0 89 -32.5 158.5t-113.5 109.5t-226 40q-28 0 -61 -2t-68.5 -5t-70.5 -5v-632q35 -2 89.5 -2.5t105.5 0t75 0.5zM489 1604
q-34 21 -75 51t-83.5 66.5t-81.5 76t-69 79.5l115 93l261 -304l-65 -62h-2zM853 1604q-45 28 -97 71.5t-102 96t-90 105.5l115 93l240 -312l-64 -54h-2z" />
    <glyph glyph-name="uni0211" unicode="&#x211;" horiz-adv-x="881" 
d="M75 0v84l160 12v882l-154 34v90l254 32h4l38 -32v-32l-4 -178h4q9 10 36.5 46.5t75 79.5t115.5 74.5t157 31.5q29 0 44.5 -2.5t25.5 -5.5v-168q-6 5 -33.5 11.5t-68.5 6.5q-93 0 -155.5 -24.5t-104 -56.5t-72.5 -55v-732l266 -16v-82h-588zM252 1298q-27 23 -67 65
t-81.5 93.5t-75 101.5t-47.5 87l139 93l212 -386l-78 -54h-2zM628 1298q-27 23 -67 65t-81.5 93.5t-75 101.5t-47.5 87l139 93l212 -386l-78 -54h-2z" />
    </font>
</defs>
</svg>
