<?xml version="1.0" standalone="no"?>
<!DOCTYPE svg PUBLIC "-//W3C//DTD SVG 1.1//EN" "http://www.w3.org/Graphics/SVG/1.1/DTD/svg11.dtd" >
<svg xmlns="http://www.w3.org/2000/svg" xmlns:xlink="http://www.w3.org/1999/xlink" version="1.1">
<metadata>
Created by FontForge 20201107 at Thu Aug  7 11:57:11 2025
 By 
Copyright 2014 by (URW)++ Design &#38; Development GmbH
</metadata>
<defs>
<font id="NimbusSanL-Reg" horiz-adv-x="1138" >
  <font-face 
    font-family="NimbusSanL"
    font-weight="400"
    font-stretch="normal"
    units-per-em="2048"
    panose-1="0 0 5 0 0 0 0 0 0 0"
    ascent="1493"
    descent="-555"
    x-height="1073"
    cap-height="1493"
    bbox="-309 -612 2114 2202"
    underline-thickness="102"
    underline-position="-309"
    unicode-range="U+0020-FB04"
  />
<missing-glyph horiz-adv-x="569" 
 />
    <glyph glyph-name="ff" unicode="ff" 
d="M532 1073v-139h-178v-934h-170v934h-143v139h143v182q0 115 66.5 179.5t185.5 64.5q47 0 96 -10v-141q-39 2 -59 2q-119 0 -119 -109v-168h178zM1083 1073v-139h-178v-934h-170v934h-143v139h143v182q0 115 66.5 179.5t185.5 64.5q47 0 96 -10v-141q-39 2 -59 2
q-119 0 -119 -109v-168h178z" />
    <glyph glyph-name="fi" unicode="fi" horiz-adv-x="1024" 
d="M516 1073v-139h-178v-934h-170v934h-143v139h143v182q0 115 66.5 179.5t185.5 64.5q47 0 96 -10v-141q-39 2 -59 2q-119 0 -119 -109v-168h178zM893 1073v-1073h-170v1073h170zM893 1493v-215h-170v215h170z" />
    <glyph glyph-name="fl" unicode="fl" horiz-adv-x="1024" 
d="M526 1073v-139h-178v-934h-170v934h-143v139h143v182q0 115 66.5 179.5t185.5 64.5q47 0 96 -10v-141q-39 2 -59 2q-119 0 -119 -109v-168h178zM881 1493v-1493h-170v1493h170z" />
    <glyph glyph-name="ffi" unicode="ffi" horiz-adv-x="1593" 
d="M528 1073v-139h-178v-934h-170v934h-143v139h143v182q0 115 66.5 179.5t185.5 64.5q47 0 96 -10v-141q-39 2 -59 2q-119 0 -119 -109v-168h178zM1098 1073v-139h-178v-934h-170v934h-144v139h144v182q0 115 66 179.5t185 64.5q48 0 97 -10v-141q-39 2 -60 2
q-118 0 -118 -109v-168h178zM1446 1073v-1073h-170v1073h170zM1446 1493v-215h-172v215h172z" />
    <glyph glyph-name=".notdef" horiz-adv-x="569" 
 />
    <glyph glyph-name=".null" horiz-adv-x="0" 
 />
    <glyph glyph-name="nonmarkingreturn" horiz-adv-x="682" 
 />
    <glyph glyph-name="space" unicode=" " horiz-adv-x="569" 
 />
    <glyph glyph-name="exclam" unicode="!" horiz-adv-x="569" 
d="M426 1493v-692l-45 -457h-80l-45 457v692h170zM426 213v-213h-172v213h172z" />
    <glyph glyph-name="quotedbl" unicode="&#x22;" horiz-adv-x="727" 
d="M106 1452h191v-227l-55 -275h-80l-56 275v227zM434 1452h191v-227l-56 -275h-80l-55 275v227z" />
    <glyph glyph-name="numbersign" unicode="#" 
d="M993 1427l-73 -401h190v-139h-217l-64 -357h215v-139h-239l-80 -432h-156l78 432h-254l-80 -432h-155l78 432h-207v139h233l64 357h-222v139h248l74 401h156l-74 -401h256l72 401h157zM737 887h-254l-65 -357h256z" />
    <glyph glyph-name="dollar" unicode="$" 
d="M512 1577h121v-111q186 -13 291.5 -120.5t105.5 -282.5h-162q-1 112 -66.5 183.5t-168.5 76.5v-510q141 -43 184.5 -59t83.5 -39q174 -99 174 -316q0 -122 -49.5 -220.5t-138.5 -153.5q-101 -61 -254 -72v-211h-121v211q-217 14 -328.5 136.5t-101.5 336.5h162
q9 -100 18.5 -140t32.5 -75q73 -98 217 -117v557q-112 34 -165.5 56t-94.5 51q-143 106 -143 299q0 175 103 279.5t300 129.5v111zM512 829v492q-114 -15 -176 -79t-62 -165q0 -94 58.5 -155t179.5 -93zM633 633v-539q67 8 109.5 24.5t78.5 51.5q86 83 86 205
q0 101 -58.5 156.5t-215.5 101.5z" />
    <glyph glyph-name="percent" unicode="%" horiz-adv-x="1820" 
d="M408 1403q148 0 249 -102.5t101 -251.5q0 -141 -103 -244t-245 -103q-146 0 -248.5 103t-102.5 248t102 247.5t247 102.5zM408 1260q-86 0 -146.5 -60.5t-60.5 -146.5t61.5 -146.5t147.5 -60.5q85 0 145.5 60t60.5 145q0 88 -60 148.5t-148 60.5zM1247 1452h135
l-809 -1493h-135zM1409 659q148 0 249 -102t101 -250q0 -142 -102.5 -244t-245.5 -102q-146 0 -248 102t-102 248q0 145 101.5 246.5t246.5 101.5zM1409 516q-86 0 -146.5 -60t-60.5 -145q0 -86 60.5 -146.5t148.5 -60.5q85 0 146 60t61 143q0 88 -60.5 148.5t-148.5 60.5z
" />
    <glyph glyph-name="ampersand" unicode="&#x26;" horiz-adv-x="1366" 
d="M1010 684h164q0 -192 -119 -375l250 -309h-224l-127 160q-97 -94 -157 -135q-113 -72 -271 -72q-189 0 -304.5 111.5t-115.5 295.5q0 141 70.5 234t261.5 203q-97 121 -131.5 191t-34.5 142q0 135 101.5 228.5t249.5 93.5q146 0 239.5 -90.5t93.5 -231.5
q0 -110 -61.5 -187.5t-220.5 -168.5l272 -334q31 54 48.5 121t15.5 123zM584 883q117 72 164 128t47 124q0 75 -51 124.5t-128 49.5q-80 0 -128 -48.5t-48 -127.5q0 -56 25 -99.5t119 -150.5zM856 281l-328 409q-139 -89 -194 -158.5t-55 -156.5q0 -109 79 -185.5t189 -76.5
q80 0 151.5 39t157.5 129z" />
    <glyph glyph-name="quotesingle" unicode="'" horiz-adv-x="391" 
d="M98 1452h193v-227l-55 -275h-82l-56 275v227z" />
    <glyph glyph-name="parenleft" unicode="(" horiz-adv-x="681" 
d="M483 1493h113q-135 -218 -208 -468.5t-73 -494.5q0 -245 73 -494.5t208 -469.5h-113q-154 201 -243.5 461t-89.5 503q0 242 90 502t243 461z" />
    <glyph glyph-name="parenright" unicode=")" horiz-adv-x="681" 
d="M190 -434h-112q135 218 207.5 467.5t72.5 494.5q0 246 -72.5 495.5t-207.5 469.5h112q154 -201 244 -461.5t90 -503.5q0 -242 -90 -501.5t-244 -460.5z" />
    <glyph glyph-name="asterisk" unicode="*" horiz-adv-x="796" 
d="M328 1493h129l-11 -229l218 77l38 -120l-221 -62l144 -182l-105 -74l-127 191l-129 -191l-102 74l141 182l-221 62l39 120l217 -77z" />
    <glyph glyph-name="plus" unicode="+" horiz-adv-x="1196" 
d="M1094 547v-144h-424v-423h-144v423h-424v144h424v424h144v-424h424z" />
    <glyph glyph-name="comma" unicode="," horiz-adv-x="569" 
d="M178 213h215v-246q0 -130 -57 -200.5t-158 -67.5v78q72 3 97.5 41.5t25.5 144.5v37h-123v213z" />
    <glyph glyph-name="hyphen" unicode="-" horiz-adv-x="681" 
d="M582 639v-147h-488v147h488z" />
    <glyph glyph-name="period" unicode="." horiz-adv-x="569" 
d="M391 213v-213h-213v213h213z" />
    <glyph glyph-name="slash" unicode="/" horiz-adv-x="569" 
d="M469 1493h113l-486 -1534h-112z" />
    <glyph glyph-name="zero" unicode="0" 
d="M563 1452q103 0 190 -41.5t144 -118.5q141 -192 141 -602q0 -358 -122.5 -547.5t-352.5 -189.5q-233 0 -354 190t-121 559q0 400 141 590q57 75 145 117.5t189 42.5zM563 1292q-291 0 -291 -592q0 -598 287 -598q151 0 223 148t72 457q0 585 -291 585z" />
    <glyph glyph-name="one" unicode="1" 
d="M530 1034h-321v129q75 9 121 17.5t87.5 24t64.5 32.5t44.5 49t35 69t30.5 97h119v-1452h-181v1034z" />
    <glyph glyph-name="two" unicode="2" 
d="M1036 178v-178h-966q8 163 46.5 269t122 189t238.5 171l189 106q196 112 196 287q0 117 -82 194.5t-205 77.5q-82 0 -148 -37.5t-101 -103.5q-34 -65 -43 -205h-181q3 110 21.5 183.5t56.5 132.5q120 188 402 188q201 0 329 -113q136 -127 136 -313q0 -270 -308 -438
l-204 -111q-134 -78 -192 -144t-71 -155h764z" />
    <glyph glyph-name="three" unicode="3" 
d="M453 666v153q170 3 239 31q117 48 117 197q0 117 -68 182t-188 65q-84 0 -148.5 -34.5t-95.5 -94.5q-30 -59 -33 -182h-180q4 232 119.5 350.5t335.5 118.5q207 0 324.5 -106t117.5 -293q0 -219 -202 -301q130 -44 187.5 -125.5t57.5 -220.5q0 -206 -133.5 -329.5
t-357.5 -123.5q-304 0 -416 211q-52 98 -63 258h180q9 -158 83 -233.5t222 -75.5q141 0 221 77t80 213q0 131 -76 198t-225 67l-76 -2h-22z" />
    <glyph glyph-name="four" unicode="4" 
d="M670 348h-613v191l660 913h133v-942h215v-162h-215v-348h-180v348zM670 510v635l-455 -635h455z" />
    <glyph glyph-name="five" unicode="5" 
d="M975 1452v-178h-604l-58 -406q121 88 269 88q209 0 339 -134t130 -349q0 -230 -139 -375t-359 -145q-124 0 -228 45.5t-165 128.5q-32 39 -50.5 88t-37.5 141h180q32 -123 105.5 -183t191.5 -60q148 0 232.5 89.5t84.5 246.5q0 161 -84.5 254.5t-230.5 93.5
q-86 0 -145.5 -30t-122.5 -105h-166l108 790h750z" />
    <glyph glyph-name="six" unicode="6" 
d="M1020 1073h-180q-22 104 -85.5 161.5t-158.5 57.5q-155 0 -238.5 -142.5t-85.5 -408.5q119 162 334 162q195 0 320 -129.5t125 -331.5q0 -213 -134.5 -351t-341.5 -138q-244 0 -364 180q-65 97 -94 221t-29 308q0 197 31.5 337t99.5 246q64 98 166.5 152.5t222.5 54.5
q166 0 276 -100.5t136 -278.5zM584 743q-133 0 -217 -85t-84 -220q0 -139 84.5 -232t210.5 -93q125 0 206.5 89.5t81.5 225.5q0 146 -75.5 230.5t-206.5 84.5z" />
    <glyph glyph-name="seven" unicode="7" 
d="M1065 1452v-152q-246 -328 -388 -640t-202 -660h-192q82 358 209.5 631t386.5 643h-785v178h971z" />
    <glyph glyph-name="eight" unicode="8" 
d="M801 764q250 -119 250 -363q0 -198 -136.5 -323t-351.5 -125q-217 0 -352 125t-135 325q0 241 248 361q-112 69 -154.5 134t-42.5 167q0 170 122 278.5t314 108.5q193 0 314.5 -107.5t121.5 -279.5q0 -103 -42.5 -167.5t-155.5 -133.5zM563 1292q-115 0 -183.5 -62.5
t-68.5 -166.5q0 -103 68.5 -165t183.5 -62q114 0 183 62t69 163q0 106 -68.5 168.5t-183.5 62.5zM563 684q-136 0 -219.5 -78.5t-83.5 -206.5q0 -127 83.5 -206.5t215.5 -79.5q140 0 223.5 78t83.5 208q0 127 -84 206t-219 79z" />
    <glyph glyph-name="nine" unicode="9" 
d="M109 332h180q22 -105 85 -162t158 -57q155 0 238.5 142.5t85.5 408.5q-70 -85 -149.5 -123.5t-182.5 -38.5q-196 0 -321 129t-125 332q0 214 134 351.5t341 137.5q244 0 367 -180q65 -97 93.5 -221.5t28.5 -307.5q0 -197 -31.5 -337t-99.5 -246q-65 -98 -167.5 -152.5
t-223.5 -54.5q-166 0 -275.5 100.5t-135.5 278.5zM551 1294q-126 0 -207.5 -89.5t-81.5 -227.5q0 -146 76 -230.5t207 -84.5q133 0 217 85t84 220q0 141 -84.5 234t-210.5 93z" />
    <glyph glyph-name="colon" unicode=":" horiz-adv-x="569" 
d="M438 213v-213h-213v213h213zM438 1073v-213h-213v213h213z" />
    <glyph glyph-name="semicolon" unicode=";" horiz-adv-x="569" 
d="M440 1073v-213h-213v213h213zM225 213h215v-246q0 -130 -57 -200.5t-158 -67.5v78q72 3 97.5 41.5t25.5 144.5v37h-123v213z" />
    <glyph glyph-name="less" unicode="&#x3c;" horiz-adv-x="1196" 
d="M92 406v141l1002 424v-162l-807 -330l807 -336v-161z" />
    <glyph glyph-name="equal" unicode="=" horiz-adv-x="1196" 
d="M1094 723v-143h-992v143h992zM1094 371v-144h-992v144h992z" />
    <glyph glyph-name="greater" unicode="&#x3e;" horiz-adv-x="1196" 
d="M1104 547v-141l-1002 -424v161l807 330l-807 336v162z" />
    <glyph glyph-name="question" unicode="?" 
d="M676 408h-184v112q0 90 41 154t172 180q81 72 117 135.5t36 134.5q0 105 -72 169.5t-190 64.5q-138 0 -201 -77t-63 -243h-174q0 238 112.5 359t335.5 121q199 0 317.5 -107t118.5 -287q0 -103 -44.5 -182.5t-159.5 -183.5q-98 -88 -129.5 -136.5t-32.5 -117.5v-96z
M676 213v-213h-184v213h184z" />
    <glyph glyph-name="at" unicode="@" horiz-adv-x="2078" 
d="M1362 1026h170l-184 -573q-25 -73 -25 -103q0 -37 30.5 -63.5t71.5 -26.5q85 0 165 67t129.5 176.5t49.5 225.5q0 169 -97.5 314.5t-263.5 231t-359 85.5q-159 0 -307.5 -65t-257.5 -173.5t-174.5 -256.5t-65.5 -306q0 -144 59.5 -272.5t161 -220.5t244 -145.5
t301.5 -53.5q162 0 397 65l57 -137q-235 -86 -463 -86q-191 0 -363.5 64.5t-297 174t-197.5 261t-73 319.5q0 201 86 395t237 330q135 123 317 194t365 71q176 0 337.5 -61t278.5 -163t187 -243t70 -295q0 -122 -45.5 -240.5t-130.5 -216.5q-154 -182 -381 -182
q-199 0 -226 157q-71 -77 -140 -112t-151 -35q-142 0 -237.5 107.5t-95.5 267.5q0 145 74 277t196 211t256 79q174 0 250 -178zM1055 938q-84 0 -161 -61t-123 -163t-46 -214q0 -101 59 -171.5t144 -70.5q57 0 111.5 35t97.5 98q39 57 73 165.5t37 184.5q4 85 -51 141
t-141 56z" />
    <glyph glyph-name="A" unicode="A" horiz-adv-x="1366" 
d="M971 449h-576l-157 -449h-203l532 1493h246l524 -1493h-213zM918 608l-230 680l-246 -680h476z" />
    <glyph glyph-name="B" unicode="B" horiz-adv-x="1366" 
d="M162 0v1493h606q208 0 324 -104q118 -106 118 -275q0 -231 -206 -326q143 -56 207.5 -141.5t64.5 -220.5q0 -180 -115 -301q-116 -125 -325 -125h-674zM352 850h369q80 0 129.5 12t87.5 41q82 63 82 184q0 122 -82 185q-38 29 -87.5 41t-129.5 12h-369v-475zM352 168h465
q126 0 197 68t71 188q0 121 -71 189.5t-197 68.5h-465v-514z" />
    <glyph glyph-name="C" unicode="C" horiz-adv-x="1478" 
d="M1356 1030h-195q-17 84 -41.5 135.5t-66.5 89.5q-46 44 -125 69.5t-170 25.5q-218 0 -343.5 -166t-125.5 -453q0 -280 131 -445t354 -165q120 0 211 50t137 142q45 86 68 232h196q-67 -592 -614 -592q-288 0 -459 174q-104 109 -159.5 263.5t-55.5 338.5q0 181 54 336.5
t155 265.5q169 187 473 187q246 0 389 -121t187 -367z" />
    <glyph glyph-name="D" unicode="D" horiz-adv-x="1478" 
d="M182 0v1493h576q284 0 446 -198.5t162 -546.5q0 -349 -162.5 -548.5t-445.5 -199.5h-576zM373 168h352q221 0 336 146.5t115 430.5q0 285 -115 432.5t-336 147.5h-352v-1157z" />
    <glyph glyph-name="E" unicode="E" horiz-adv-x="1366" 
d="M375 680v-512h880v-168h-1071v1493h1035v-168h-844v-477h813v-168h-813z" />
    <glyph glyph-name="F" unicode="F" horiz-adv-x="1251" 
d="M375 680v-680h-191v1493h1002v-168h-811v-477h712v-168h-712z" />
    <glyph glyph-name="G" unicode="G" horiz-adv-x="1593" 
d="M1452 788v-796h-121l-47 198q-110 -122 -234 -179.5t-276 -57.5q-199 0 -355 98t-242.5 275.5t-86.5 404.5q0 202 70 369t200 274q175 144 447 144q257 0 421 -125.5t204 -352.5h-195q-31 145 -146.5 227.5t-285.5 82.5q-236 0 -380 -167t-144 -442q0 -139 42 -264.5
t115 -204.5q66 -72 164.5 -111.5t212.5 -39.5q204 0 336.5 129.5t132.5 329.5v41h-455v167h623z" />
    <glyph glyph-name="H" unicode="H" horiz-adv-x="1478" 
d="M1128 680h-768v-680h-190v1493h190v-645h768v645h191v-1493h-191v680z" />
    <glyph glyph-name="I" unicode="I" horiz-adv-x="569" 
d="M397 1493v-1493h-192v1493h192z" />
    <glyph glyph-name="J" unicode="J" horiz-adv-x="1024" 
d="M682 1493h190v-1120q0 -194 -113 -307t-308 -113q-192 0 -304 106.5t-112 288.5v131h194v-96q0 -130 58.5 -200t165.5 -70q57 0 105.5 24.5t76.5 67.5q47 68 47 237v1051z" />
    <glyph glyph-name="K" unicode="K" horiz-adv-x="1366" 
d="M352 522v-522h-190v1493h190v-756l744 756h245l-608 -608l615 -885h-226l-526 766z" />
    <glyph glyph-name="L" unicode="L" 
d="M354 1493v-1325h738v-168h-928v1493h190z" />
    <glyph glyph-name="M" unicode="M" horiz-adv-x="1705" 
d="M958 0h-200l-424 1251v-1251h-180v1493h264l442 -1300l434 1300h265v-1493h-181v1251z" />
    <glyph glyph-name="N" unicode="N" horiz-adv-x="1478" 
d="M1323 1493v-1493h-215l-772 1210v-1210h-180v1493h206l781 -1221v1221h180z" />
    <glyph glyph-name="O" unicode="O" horiz-adv-x="1593" 
d="M797 1518q328 0 525.5 -217t197.5 -578q0 -184 -68.5 -347t-189.5 -265q-187 -158 -463 -158q-160 0 -294.5 56.5t-228.5 158t-146 247.5t-52 320q0 231 90 409t253.5 276t375.5 98zM797 1350q-238 0 -383.5 -169t-145.5 -446t146 -445.5t385 -168.5q236 0 383 168
t147 438q0 284 -144.5 453.5t-387.5 169.5z" />
    <glyph glyph-name="P" unicode="P" horiz-adv-x="1366" 
d="M377 633v-633h-191v1493h617q221 0 341 -113.5t120 -324.5q0 -103 -31 -179t-98 -137q-118 -106 -289 -106h-469zM377 801h397q137 0 214 69.5t77 192.5t-77 192.5t-214 69.5h-397v-524z" />
    <glyph glyph-name="Q" unicode="Q" horiz-adv-x="1593" 
d="M1501 -2l-96 -119l-215 178q-175 -104 -391 -104q-160 0 -294.5 57t-228.5 158.5t-146 247.5t-52 319q0 232 89.5 410t253.5 275.5t378 97.5q213 0 377 -97.5t254 -274.5t90 -407q0 -350 -211 -583zM985 420l182 -150q162 182 162 467q0 275 -146 444t-384 169
q-239 0 -385 -169t-146 -446t145.5 -445.5t383.5 -168.5q128 0 245 57l-151 127z" />
    <glyph glyph-name="R" unicode="R" horiz-adv-x="1478" 
d="M381 643v-643h-191v1493h689q221 0 337.5 -102.5t116.5 -296.5q0 -129 -54.5 -211.5t-180.5 -145.5q84 -36 125 -79.5t58.5 -113t18.5 -196.5q3 -150 20 -207t71 -94v-47h-232q-43 97 -43 244l2 133q0 138 -59 202t-187 64h-491zM381 811h461q152 0 222.5 62t70.5 196
q0 133 -78 199q-65 57 -215 57h-461v-514z" />
    <glyph glyph-name="S" unicode="S" horiz-adv-x="1366" 
d="M1221 1055h-181q-1 147 -97 225t-275 78q-151 0 -242.5 -69t-91.5 -183q0 -86 55 -135t191 -86l374 -101q152 -41 235 -138.5t83 -235.5q0 -97 -44.5 -189.5t-119.5 -152.5q-149 -115 -420 -115q-348 0 -502 213q-45 62 -66 134.5t-22 174.5h181q-3 -133 77 -229
q105 -125 344 -125q189 0 275 63q48 34 77 90.5t29 116.5q0 88 -66 146.5t-208 95.5l-371 98q-293 76 -293 348q0 203 142.5 321t388.5 118q189 0 317.5 -67t190.5 -196q25 -53 32 -88.5t7 -111.5z" />
    <glyph glyph-name="T" unicode="T" horiz-adv-x="1251" 
d="M725 1325v-1325h-190v1325h-492v168h1171v-168h-489z" />
    <glyph glyph-name="U" unicode="U" horiz-adv-x="1478" 
d="M1130 1493h191v-1049q0 -224 -156.5 -357.5t-419.5 -133.5q-265 0 -418 131.5t-153 359.5v1049h191v-1049q0 -162 108 -245q110 -78 272 -78q180 0 282.5 86t102.5 237v1049z" />
    <glyph glyph-name="V" unicode="V" horiz-adv-x="1366" 
d="M803 0h-205l-537 1493h205l439 -1264l413 1264h203z" />
    <glyph glyph-name="W" unicode="W" horiz-adv-x="1933" 
d="M1524 0h-209l-344 1227l-334 -1227h-209l-383 1493h213l281 -1212l331 1212h205l340 -1212l275 1212h213z" />
    <glyph glyph-name="X" unicode="X" horiz-adv-x="1366" 
d="M801 766l528 -766h-235l-408 623l-410 -623h-231l528 766l-495 727h231l383 -586l385 586h228z" />
    <glyph glyph-name="Y" unicode="Y" horiz-adv-x="1366" 
d="M793 586v-586h-191v586l-575 907h235l438 -727l426 727h228z" />
    <glyph glyph-name="Z" unicode="Z" horiz-adv-x="1251" 
d="M1190 1493v-172l-893 -1153h897v-168h-1137v168l897 1157h-839v168h1075z" />
    <glyph glyph-name="bracketleft" unicode="[" horiz-adv-x="569" 
d="M512 1493v-147h-211v-1633h211v-147h-381v1927h381z" />
    <glyph glyph-name="backslash" unicode="\" horiz-adv-x="569" 
d="M96 1493l486 -1534h-113l-485 1534h112z" />
    <glyph glyph-name="bracketright" unicode="]" horiz-adv-x="569" 
d="M47 -434v147h211v1633h-211v147h381v-1927h-381z" />
    <glyph glyph-name="asciicircum" unicode="^" horiz-adv-x="960" 
d="M403 1452h150l317 -778h-141l-250 614l-248 -614h-141z" />
    <glyph glyph-name="underscore" unicode="_" 
d="M1184 -258v-102h-1229v102h1229z" />
    <glyph glyph-name="grave" unicode="`" horiz-adv-x="681" 
d="M276 1516l197 -304h-123l-305 304h231z" />
    <glyph glyph-name="a" unicode="a" 
d="M1096 100v-129q-73 -18 -117 -18q-83 0 -125 37.5t-51 120.5q-91 -83 -177.5 -120.5t-187.5 -37.5q-163 0 -257.5 85.5t-94.5 231.5q0 207 188 287q51 21 108.5 32t235.5 34q104 13 140.5 37.5t38.5 80.5v45q0 77 -62 118.5t-178 41.5q-120 0 -180.5 -46t-71.5 -144h-172
q3 79 20 130.5t54 92.5q116 125 356 125q198 0 301 -75t103 -218v-631q0 -40 24 -62t68 -22q19 0 37 4zM797 338v192q-42 -20 -89 -30t-186 -29q-138 -20 -198 -66t-60 -131q0 -82 55.5 -127t155.5 -45q146 0 254 97q38 35 53 65.5t15 73.5z" />
    <glyph glyph-name="b" unicode="b" 
d="M111 1493h170v-565q60 91 140.5 133.5t190.5 42.5q214 0 336.5 -151t122.5 -412q0 -267 -127.5 -427.5t-339.5 -160.5q-219 0 -340 184v-137h-153v1493zM580 944q-136 0 -217.5 -113.5t-81.5 -302.5t81.5 -302t217.5 -113q140 0 226.5 113t86.5 296q0 192 -85.5 307
t-227.5 115z" />
    <glyph glyph-name="c" unicode="c" horiz-adv-x="1024" 
d="M965 713h-172q-15 112 -81 172.5t-173 60.5q-139 0 -218 -113.5t-79 -314.5q0 -191 80 -299t221 -108q219 0 262 258h172q-15 -197 -130.5 -306.5t-307.5 -109.5q-218 0 -347 153t-129 412q0 267 130 426.5t348 159.5q112 0 204 -42t148 -118q61 -88 72 -231z" />
    <glyph glyph-name="d" unicode="d" 
d="M1014 1493v-1493h-152v141q-69 -99 -150 -143.5t-192 -44.5q-218 0 -342.5 157t-124.5 429q0 256 126 410.5t335 154.5q220 0 330 -166v555h170zM543 944q-140 0 -226 -114.5t-86 -301.5t86.5 -301t227.5 -114q135 0 217 112.5t82 298.5q0 193 -81.5 306.5t-219.5 113.5z
" />
    <glyph glyph-name="e" unicode="e" 
d="M1051 479h-791q2 -81 14.5 -132.5t42.5 -96.5q43 -67 109.5 -103t148.5 -36q209 0 281 215h172q-32 -175 -153.5 -274t-305.5 -99q-227 0 -357 151.5t-130 417.5t133.5 424t357.5 158q151 0 266.5 -75.5t168.5 -207.5q43 -111 43 -342zM264 618h602q0 145 -82.5 236.5
t-212.5 91.5q-129 0 -213 -89.5t-94 -238.5z" />
    <glyph glyph-name="f" unicode="f" horiz-adv-x="569" 
d="M528 1073v-139h-178v-934h-170v934h-143v139h143v182q0 115 66.5 179.5t185.5 64.5q47 0 96 -10v-141q-39 2 -59 2q-119 0 -119 -109v-168h178z" />
    <glyph glyph-name="g" unicode="g" 
d="M827 1073h158v-897q0 -189 -25.5 -299.5t-87.5 -185.5q-53 -65 -146.5 -101t-211.5 -36q-175 0 -285.5 87t-122.5 236h175q12 -92 70 -136t167 -44q160 0 226.5 89t66.5 304v55q-68 -101 -141 -146.5t-170 -45.5q-170 0 -293 145q-135 160 -135 420q0 258 122.5 422
t317.5 164q101 0 175.5 -44.5t139.5 -141.5v155zM528 946q-132 0 -205 -110.5t-73 -307.5q0 -198 73 -307.5t205 -109.5q134 0 208.5 108t74.5 303q0 204 -74 314t-209 110z" />
    <glyph glyph-name="h" unicode="h" 
d="M143 1493h170v-567q75 98 152.5 138t191.5 40q157 0 247.5 -79t90.5 -214v-811h-170v743q0 112 -69 164q-62 47 -152 47q-132 0 -211.5 -99t-79.5 -263v-592h-170v1493z" />
    <glyph glyph-name="i" unicode="i" horiz-adv-x="454" 
d="M307 1073v-1073h-170v1073h170zM307 1493v-215h-172v215h172z" />
    <glyph glyph-name="j" unicode="j" horiz-adv-x="454" 
d="M143 1073h170v-1296q0 -110 -74 -166.5t-219 -56.5q-27 0 -57 6v145q23 -2 41 -2q79 0 109 30.5t30 110.5v1229zM313 1493v-215h-170v215h170z" />
    <glyph glyph-name="k" unicode="k" horiz-adv-x="1024" 
d="M289 1493v-875l454 455h220l-373 -371l438 -702h-211l-362 582l-166 -164v-418h-170v1493h170z" />
    <glyph glyph-name="l" unicode="l" horiz-adv-x="454" 
d="M311 1493v-1493h-172v1493h172z" />
    <glyph glyph-name="m" unicode="m" horiz-adv-x="1705" 
d="M143 1073h158v-151q67 97 145 139.5t185 42.5q104 0 173 -39t116 -125q75 91 148.5 127.5t180.5 36.5q151 0 231.5 -77t80.5 -222v-805h-172v739q0 101 -52.5 158t-146.5 57q-104 0 -178 -81.5t-74 -198.5v-674h-172v739q0 103 -52 159t-147 56q-104 0 -178 -81.5
t-74 -198.5v-674h-172v1073z" />
    <glyph glyph-name="n" unicode="n" 
d="M143 1073h158v-180q71 113 153.5 162t202.5 49q155 0 247.5 -79.5t92.5 -213.5v-811h-170v743q0 97 -60 154t-161 57q-132 0 -211.5 -99t-79.5 -263v-592h-172v1073z" />
    <glyph glyph-name="o" unicode="o" 
d="M557 1104q233 0 360 -152t127 -432q0 -264 -129 -415.5t-356 -151.5q-229 0 -357 152t-128 423q0 270 128 423t355 153zM559 946q-143 0 -225 -111.5t-82 -306.5t82 -306t225 -111q141 0 224 110.5t83 300.5q0 200 -81 312t-226 112z" />
    <glyph glyph-name="p" unicode="p" 
d="M111 -446v1519h157v-162q122 193 342 193q213 0 337 -158t124 -428q0 -257 -125 -411t-334 -154q-104 0 -182.5 38.5t-146.5 121.5v-559h-172zM582 944q-136 0 -217.5 -113.5t-81.5 -302.5t81.5 -302t217.5 -113q139 0 225 113t86 296q0 192 -85 307t-226 115z" />
    <glyph glyph-name="q" unicode="q" 
d="M1014 -446h-170v569q-60 -88 -140 -129t-192 -41q-214 0 -336.5 151t-122.5 412q0 267 127.5 427.5t339.5 160.5q106 0 194 -44.5t148 -129.5v143h152v-1519zM545 944q-141 0 -227.5 -114.5t-86.5 -301.5t86.5 -301t227.5 -114q135 0 217 112t82 297q0 194 -81 308
t-218 114z" />
    <glyph glyph-name="r" unicode="r" horiz-adv-x="681" 
d="M141 1073h158v-194q74 120 142 172.5t151 52.5q22 0 65 -6v-174q-177 4 -259.5 -84.5t-84.5 -282.5v-557h-172v1073z" />
    <glyph glyph-name="s" unicode="s" horiz-adv-x="1024" 
d="M897 774h-180q-3 85 -57.5 128.5t-157.5 43.5q-105 0 -166.5 -43.5t-61.5 -118.5q0 -57 47 -92.5t152 -60.5l164 -39q160 -38 231.5 -108.5t71.5 -190.5q0 -155 -120 -247.5t-322 -92.5q-211 0 -316.5 90t-111.5 276h180q7 -56 17.5 -84.5t31.5 -52.5q68 -71 213 -71
q112 0 181 46.5t69 123.5q0 57 -38.5 91t-127.5 56l-160 39q-190 46 -265 114.5t-75 194.5q0 149 112.5 238.5t299.5 89.5q186 0 286.5 -86t102.5 -244z" />
    <glyph glyph-name="t" unicode="t" horiz-adv-x="569" 
d="M520 1073v-139h-176v-735q0 -57 19.5 -77t74.5 -20q44 0 82 9v-144q-80 -14 -139 -14q-100 0 -153.5 43.5t-53.5 126.5v811h-145v139h145v295h170v-295h176z" />
    <glyph glyph-name="u" unicode="u" 
d="M987 0h-153v150q-75 -106 -158 -151.5t-201 -45.5q-157 0 -249.5 79.5t-92.5 213.5v827h170v-760q0 -97 60 -154t161 -57q133 0 213 99t80 264v608h170v-1073z" />
    <glyph glyph-name="v" unicode="v" horiz-adv-x="1024" 
d="M584 0h-187l-377 1073h193l287 -870l303 870h192z" />
    <glyph glyph-name="w" unicode="w" horiz-adv-x="1478" 
d="M1135 0h-195l-217 842l-207 -842h-192l-312 1073h189l219 -835l205 835h209l210 -835l213 835h193z" />
    <glyph glyph-name="x" unicode="x" horiz-adv-x="1024" 
d="M598 555l371 -555h-199l-268 412l-273 -412h-194l379 547l-359 526h195l258 -389l258 389h192z" />
    <glyph glyph-name="y" unicode="y" horiz-adv-x="1024" 
d="M795 1073h184l-477 -1298q-25 -64 -51 -102.5t-66 -67.5q-70 -51 -160 -51q-63 0 -114 26v154q60 -13 90 -13q54 0 84.5 24t52.5 81l65 170l-362 1077h182l275 -835z" />
    <glyph glyph-name="z" unicode="z" horiz-adv-x="1024" 
d="M907 1073v-151l-637 -772h666v-150h-873v154l642 770h-599v149h801z" />
    <glyph glyph-name="braceleft" unicode="{" horiz-adv-x="684" 
d="M565 1493v-133h-30q-76 -1 -102.5 -29t-26.5 -108v-371q0 -138 -39.5 -214t-128.5 -108q165 -65 168 -323v-371q0 -80 26.5 -108t102.5 -29h30v-133h-94q-106 2 -166 74t-57 196v340q2 137 -34.5 201.5t-125.5 81.5v141q89 17 125.5 81.5t34.5 201.5v340q-3 124 57 196
t166 74h94z" />
    <glyph glyph-name="bar" unicode="|" horiz-adv-x="532" 
d="M205 1493h123v-1927h-123v1927z" />
    <glyph glyph-name="braceright" unicode="}" horiz-adv-x="684" 
d="M59 -434v133h33q78 1 104.5 29t26.5 108v371q3 259 168 321q-165 65 -168 324v371q0 79 -27 107t-104 30h-33v133h97q107 -2 167.5 -74t57.5 -196v-340q-1 -136 34.5 -201t121.5 -82v-141q-86 -17 -121.5 -82t-34.5 -201v-340q3 -124 -57.5 -196t-167.5 -74h-97z" />
    <glyph glyph-name="asciitilde" unicode="~" horiz-adv-x="1196" 
d="M932 842h108v-33q0 -120 -57.5 -190t-157.5 -70q-81 0 -166 53l-200 129q-16 9 -45 19t-43 10q-60 0 -92 -72q-12 -30 -17 -88h-108q7 146 64 221.5t157 75.5q60 0 110 -33l240 -141q57 -35 102 -35q57 0 81.5 36t23.5 118z" />
    <glyph glyph-name="uni00A0" unicode="&#xa0;" horiz-adv-x="569" 
 />
    <glyph glyph-name="exclamdown" unicode="&#xa1;" horiz-adv-x="681" 
d="M250 -420v692l45 457h80l45 -457v-692h-170zM248 860v213h172v-213h-172z" />
    <glyph glyph-name="cent" unicode="&#xa2;" 
d="M639 946v-837q196 21 233 260h172q-11 -185 -119 -296t-286 -120v-199h-86v201q-208 19 -327.5 169t-119.5 394q0 250 120 406t327 178v184h86v-182q180 -12 282 -114t111 -277h-172q-10 103 -68.5 164t-152.5 69zM553 113v831q-132 -25 -200 -132.5t-68 -293.5
q0 -173 70 -279t198 -126z" />
    <glyph glyph-name="sterling" unicode="&#xa3;" 
d="M750 770v-113h-279q31 -91 31 -145q0 -80 -52.5 -164t-189.5 -223q121 80 250 80q69 0 168 -31q114 -33 162 -33q81 0 170 62l86 -135q-62 -60 -126 -87.5t-143 -27.5q-57 0 -114 14t-185 58q-68 22 -135 22q-104 0 -223 -76l-98 135q141 122 198.5 209.5t57.5 182.5
q0 80 -49 159h-226v113h166q-70 116 -89 166.5t-19 118.5q0 122 64 222.5t176 158t247 57.5q130 0 233.5 -53.5t159.5 -149.5q55 -96 58 -272h-181q-9 315 -278 315q-130 0 -209.5 -71.5t-79.5 -188.5q0 -86 45 -166l43 -80q16 -23 33 -57h328z" />
    <glyph glyph-name="currency" unicode="&#xa4;" 
d="M993 389l-119 -110l-108 108q-82 -61 -205 -61q-110 0 -192 51l-105 -105l-114 117l98 100q-66 89 -66 209q0 114 66 209l-111 113l115 108l113 -112q89 53 198 53q119 0 201 -57l121 108l116 -119l-112 -112q53 -85 53 -191q0 -107 -59 -198zM561 911q-89 0 -153 -63
t-64 -152q0 -88 64 -150.5t155 -62.5q89 0 153 62.5t64 148.5q0 91 -63.5 154t-155.5 63z" />
    <glyph glyph-name="yen" unicode="&#xa5;" 
d="M1014 725v-104h-348v-158h348v-105h-348v-358h-181v358h-352v105h352v158h-352v104h309l-419 727h174l378 -659l367 659h174l-411 -727h309z" />
    <glyph glyph-name="brokenbar" unicode="&#xa6;" horiz-adv-x="532" 
d="M205 1493h123v-821h-123v821zM205 387h123v-821h-123v821z" />
    <glyph glyph-name="section" unicode="&#xa7;" 
d="M950 1073h-170v19v34q0 95 -53.5 152t-144.5 57q-78 0 -130.5 -49.5t-52.5 -124.5q0 -44 26 -79t91 -78l299 -193q122 -78 171.5 -155t49.5 -187q0 -236 -221 -319q60 -69 83.5 -122.5t23.5 -119.5q0 -149 -108.5 -246.5t-272.5 -97.5q-129 0 -224 61t-135 170
q-22 62 -22 146v30h174q0 -61 7.5 -95.5t27.5 -63.5q63 -91 174 -91q86 0 140 49.5t54 127.5q0 103 -110 180l-348 239q-100 69 -144.5 145t-44.5 177q0 103 50.5 175t164.5 132q-48 55 -69 103t-21 106q0 141 109.5 239.5t267.5 98.5q161 0 259.5 -100t98.5 -263v-40v-17z
M387 469l340 -252q71 38 109 93t38 118q0 126 -149 227l-328 224q-80 -53 -112.5 -99.5t-32.5 -107.5q0 -62 27 -102.5t108 -100.5z" />
    <glyph glyph-name="dieresis" unicode="&#xa8;" horiz-adv-x="681" 
d="M274 1464v-211h-213v211h213zM606 1464v-211h-213v211h213z" />
    <glyph glyph-name="copyright" unicode="&#xa9;" horiz-adv-x="1509" 
d="M1114 895h-145q-26 102 -72.5 146t-128.5 44q-117 0 -186.5 -95.5t-69.5 -256.5t74 -254q32 -43 82 -68.5t100 -25.5q86 0 141.5 64.5t75.5 189.5h145q-19 -94 -36.5 -145t-46.5 -93q-101 -143 -279 -143q-177 0 -287 131t-110 342q0 217 110.5 349t292.5 132
q137 0 220 -77.5t120 -239.5zM756 1520q159 0 304 -62t249.5 -166.5t166.5 -249.5t62 -303q0 -162 -62 -307t-167.5 -249.5t-252.5 -166t-311 -61.5q-155 0 -297.5 63t-246.5 168t-166 249.5t-62 301.5q0 212 105 392.5t285.5 285.5t392.5 105zM756 1393q-174 0 -322 -88
t-234.5 -239t-86.5 -329q0 -175 86 -326t232.5 -240t316.5 -89q135 0 255.5 51.5t207 139t137.5 209.5t51 257q0 177 -86.5 327.5t-234.5 238.5t-322 88z" />
    <glyph glyph-name="ordfeminine" unicode="&#xaa;" horiz-adv-x="757" 
d="M655 725v-104h-567v104h567zM682 920v-91q-32 -12 -66 -12q-51 0 -77 20.5t-35 67.5q-101 -88 -215 -88q-98 0 -155.5 53t-57.5 144q0 127 117 178q69 28 204 37q59 5 78.5 17.5t22.5 49.5v27q0 90 -138 90q-69 0 -99 -24.5t-40 -90.5h-121q3 109 71 165.5t194 56.5
q249 0 249 -193v-366q0 -48 48 -48q6 0 20 7zM498 1059v104q-33 -14 -156 -33q-80 -11 -113.5 -36t-33.5 -74q0 -46 30.5 -71t85.5 -25q75 0 131 40t56 95z" />
    <glyph glyph-name="guillemotleft" unicode="&#xab;" 
d="M201 465v182l311 250v-170l-217 -170l217 -170v-170zM621 465v182l311 250v-170l-217 -170l217 -170v-170z" />
    <glyph glyph-name="logicalnot" unicode="&#xac;" horiz-adv-x="1196" 
d="M82 768h1032v-592h-143v449h-889v143z" />
    <glyph glyph-name="uni00AD" unicode="&#xad;" horiz-adv-x="681" 
d="M582 639v-147h-488v147h488z" />
    <glyph glyph-name="registered" unicode="&#xae;" horiz-adv-x="1509" 
d="M557 666v-379h-143v911h422q146 0 217 -63.5t71 -194.5q0 -71 -23 -114.5t-87 -88.5q57 -37 73.5 -78.5t18.5 -150.5q1 -88 10 -118.5t37 -51.5v-51h-162q-30 72 -30 157l2 82q0 73 -31.5 106.5t-100.5 33.5h-274zM557 795h264q80 0 117 32.5t37 104.5t-36 104.5
t-118 32.5h-264v-274zM756 1520q159 0 304 -62t249.5 -166.5t166.5 -249.5t62 -303q0 -162 -62 -307t-167.5 -249.5t-252.5 -166t-311 -61.5q-155 0 -297.5 63t-246.5 168t-166 249.5t-62 301.5q0 212 105 392.5t285.5 285.5t392.5 105zM756 1393q-174 0 -322 -88
t-234.5 -239t-86.5 -329q0 -175 86 -326t232.5 -240t316.5 -89q135 0 255.5 51.5t207 139t137.5 209.5t51 257q0 177 -86.5 327.5t-234.5 238.5t-322 88z" />
    <glyph glyph-name="macron" unicode="&#xaf;" horiz-adv-x="681" 
d="M618 1436v-144h-561v144h561z" />
    <glyph glyph-name="degree" unicode="&#xb0;" horiz-adv-x="819" 
d="M410 1405q128 0 218.5 -90.5t90.5 -218.5q0 -130 -91 -221t-222 -91q-126 0 -217 92t-91 220t91.5 218.5t220.5 90.5zM410 1288q-82 0 -138.5 -56t-56.5 -136q0 -79 57 -137t134 -58q83 0 139.5 56.5t56.5 138.5q0 80 -56 136t-136 56z" />
    <glyph glyph-name="plusminus" unicode="&#xb1;" horiz-adv-x="1196" 
d="M1094 852v-143h-424v-424h-144v424h-424v143h424v424h144v-424h424zM1094 121v-144h-992v144h992z" />
    <glyph glyph-name="twosuperior" unicode="&#xb2;" horiz-adv-x="681" 
d="M643 700v-118h-623q6 149 59.5 227t201.5 156l118 63q121 65 121 162q0 66 -49.5 109.5t-124.5 43.5q-49 0 -89 -21t-62 -58q-21 -36 -27 -123h-127q4 158 80.5 234.5t228.5 76.5q132 0 215.5 -72t83.5 -186q0 -164 -196 -264l-129 -66q-67 -36 -99 -71t-51 -93h469z" />
    <glyph glyph-name="threesuperior" unicode="&#xb3;" horiz-adv-x="681" 
d="M258 975v104q131 0 178 26.5t47 98.5q0 66 -40.5 102.5t-114.5 36.5q-51 0 -90 -18.5t-58 -52.5q-18 -35 -18 -111h-129q6 291 295 291q132 0 208 -65.5t76 -180.5q0 -121 -116 -174q145 -49 145 -205q0 -125 -86 -199.5t-231 -74.5q-148 0 -229 76t-81 215h127
q4 -95 49 -138.5t138 -43.5q88 0 136 43.5t48 121.5q0 148 -188 148h-48h-18z" />
    <glyph glyph-name="acute" unicode="&#xb4;" horiz-adv-x="681" 
d="M385 1516h231l-305 -304h-123z" />
    <glyph glyph-name="mu" unicode="&#xb5;" 
d="M1114 100v-129q-68 -18 -117 -18q-88 0 -130.5 41t-45.5 129q-123 -170 -334 -170q-111 0 -184 53v-457h-170v1524h170v-760q0 -97 59.5 -154t159.5 -57q133 0 213 99t80 264v608h170v-893q0 -84 92 -84q17 0 37 4z" />
    <glyph glyph-name="paragraph" unicode="&#xb6;" horiz-adv-x="1099" 
d="M1069 1493v-131h-117v-1724h-131v1724h-168v-1724h-131v892q-84 4 -143 25t-113 66q-80 66 -124 166t-44 214q0 207 133 349.5t326 142.5h512z" />
    <glyph glyph-name="periodcentered" unicode="&#xb7;" horiz-adv-x="569" 
d="M432 874v-256h-254v256h254z" />
    <glyph glyph-name="cedilla" unicode="&#xb8;" horiz-adv-x="681" 
d="M338 0h78l-47 -115q27 4 55 4q78 0 121 -35.5t43 -101.5q0 -89 -67.5 -139.5t-184.5 -50.5q-61 0 -111.5 13.5t-144.5 55.5l43 82l18 -8q69 -35 106 -47t77 -12q47 0 78.5 26t31.5 66q0 35 -25 55.5t-69 20.5q-29 0 -64 -17l-24 15z" />
    <glyph glyph-name="onesuperior" unicode="&#xb9;" horiz-adv-x="681" 
d="M309 1188h-203v94l31 2q110 11 147.5 40.5t63.5 127.5h88v-870h-127v606z" />
    <glyph glyph-name="ordmasculine" unicode="&#xba;" horiz-adv-x="747" 
d="M643 725v-104h-539v104h539zM373 1520q141 0 216 -92t75 -265q0 -164 -76.5 -255t-214.5 -91q-139 0 -215 91.5t-76 258.5q0 169 76 261t215 92zM373 1413q-80 0 -126 -65t-46 -179q0 -115 46 -180t126 -65t126 64.5t46 176.5q0 117 -45 182.5t-127 65.5z" />
    <glyph glyph-name="guillemotright" unicode="&#xbb;" 
d="M516 649v-182l-315 -250v170l221 170l-221 170v170zM924 649v-182l-316 -250v170l221 170l-221 170v170z" />
    <glyph glyph-name="onequarter" unicode="&#xbc;" horiz-adv-x="1708" 
d="M256 1188h-203v94l31 2q110 11 147.5 40.5t63.5 127.5h88v-870h-127v606zM1245 1452h119l-926 -1493h-119zM1403 205h-385v121l418 544h94v-557h137v-108h-137v-205h-127v205zM1403 313v349l-264 -349h264z" />
    <glyph glyph-name="onehalf" unicode="&#xbd;" horiz-adv-x="1708" 
d="M254 1188h-203v94l31 2q110 11 147.5 40.5t63.5 127.5h88v-870h-127v606zM1194 1452h119l-926 -1493h-119zM1649 119v-119h-623q8 150 60.5 227.5t199.5 155.5l119 63q121 65 121 162q0 66 -49.5 110t-124.5 44q-49 0 -89.5 -21.5t-62.5 -58.5q-20 -34 -26 -123h-127
q4 158 80.5 234.5t228.5 76.5q132 0 215.5 -72t83.5 -186q0 -163 -197 -264l-129 -65q-66 -35 -98 -70.5t-51 -93.5h469z" />
    <glyph glyph-name="threequarters" unicode="&#xbe;" horiz-adv-x="1708" 
d="M295 975v104q131 0 178 26.5t47 98.5q0 66 -40.5 102.5t-114.5 36.5q-51 0 -90 -18.5t-58 -52.5q-18 -35 -18 -111h-129q6 291 295 291q132 0 208 -65.5t76 -180.5q0 -120 -117 -174q146 -49 146 -205q0 -125 -86.5 -199.5t-231.5 -74.5q-148 0 -228.5 76t-80.5 215h127
q4 -95 49 -138.5t138 -43.5q88 0 136 43.5t48 121.5q0 148 -189 148h-47h-18zM1303 1452h118l-925 -1493h-119zM1399 205h-385v121l418 544h94v-557h137v-108h-137v-205h-127v205zM1399 313v349l-264 -349h264z" />
    <glyph glyph-name="questiondown" unicode="&#xbf;" horiz-adv-x="1251" 
d="M563 666h185v-113q0 -90 -41.5 -154t-174.5 -180q-81 -72 -117 -135.5t-36 -134.5q0 -105 72.5 -169.5t191.5 -64.5q138 0 201 77t63 243h174q0 -238 -112.5 -358.5t-335.5 -120.5q-201 0 -319.5 106.5t-118.5 286.5q0 103 44.5 182.5t159.5 183.5q100 88 131 136.5
t33 117.5v97zM563 860v213h185v-213h-185z" />
    <glyph glyph-name="Agrave" unicode="&#xc0;" horiz-adv-x="1366" 
d="M971 449h-576l-157 -449h-203l532 1493h246l524 -1493h-213zM918 608l-230 680l-246 -680h476zM621 1923l198 -303h-125l-303 303h230z" />
    <glyph glyph-name="Aacute" unicode="&#xc1;" horiz-adv-x="1366" 
d="M971 449h-576l-157 -449h-203l532 1493h246l524 -1493h-213zM918 608l-230 680l-246 -680h476zM758 1923h231l-305 -303h-123z" />
    <glyph glyph-name="Acircumflex" unicode="&#xc2;" horiz-adv-x="1366" 
d="M971 449h-576l-157 -449h-203l532 1493h246l524 -1493h-213zM918 608l-230 680l-246 -680h476zM590 1925h192l199 -307h-131l-164 197l-162 -197h-131z" />
    <glyph glyph-name="Atilde" unicode="&#xc3;" horiz-adv-x="1366" 
d="M971 449h-576l-157 -449h-203l532 1493h246l524 -1493h-213zM918 608l-230 680l-246 -680h476zM889 1876h119q-30 -213 -183 -213q-30 0 -58 8t-116 41q-69 27 -100 27q-49 0 -68 -74h-118q17 101 63 156t113 55q32 0 55 -6.5t88 -32.5q89 -35 129 -35q53 0 76 74z" />
    <glyph glyph-name="Adieresis" unicode="&#xc4;" horiz-adv-x="1366" 
d="M971 449h-576l-157 -449h-203l532 1493h246l524 -1493h-213zM918 608l-230 680l-246 -680h476zM627 1872v-211h-213v211h213zM958 1872v-211h-213v211h213z" />
    <glyph glyph-name="Aring" unicode="&#xc5;" horiz-adv-x="1366" 
d="M971 449h-576l-157 -449h-203l532 1493h246l524 -1493h-213zM918 608l-230 680l-246 -680h476zM686 1952q75 0 127.5 -52.5t52.5 -127.5q0 -73 -53 -126t-127 -53q-75 0 -127.5 53t-52.5 128q0 73 53 125.5t127 52.5zM686 1862q-37 0 -63.5 -26.5t-26.5 -63.5
q0 -36 27 -62.5t63 -26.5t63 26.5t27 62.5q0 38 -26 64t-64 26z" />
    <glyph glyph-name="AE" unicode="&#xc6;" horiz-adv-x="2048" 
d="M958 438h-550l-175 -438h-210l612 1493h1274v-168h-760v-477h721v-168h-721v-512h797v-168h-988v438zM958 606v719h-204l-283 -719h487z" />
    <glyph glyph-name="Ccedilla" unicode="&#xc7;" horiz-adv-x="1478" 
d="M776 -47l-26 -68q27 4 55 4q78 0 121 -35.5t43 -101.5q0 -88 -67.5 -139t-184.5 -51q-61 0 -111.5 13.5t-144.5 55.5l43 82l18 -8q69 -36 105.5 -47.5t77.5 -11.5q47 0 78.5 26t31.5 66q0 35 -25 55.5t-69 20.5q-29 0 -64 -17l-22 15l63 141q-116 17 -177.5 38.5
t-127.5 67.5q-139 98 -217 275t-78 395q0 181 54 336.5t155 265.5q169 187 473 187q246 0 389 -121t187 -367h-195q-17 84 -41.5 135.5t-66.5 89.5q-46 44 -124.5 69.5t-168.5 25.5q-218 0 -344.5 -166t-126.5 -453q0 -281 131 -446.5t354 -165.5q120 0 211 50t137 142
q45 89 68 234h196q-34 -294 -187 -443t-423 -149z" />
    <glyph glyph-name="Egrave" unicode="&#xc8;" horiz-adv-x="1366" 
d="M375 680v-512h880v-168h-1071v1493h1035v-168h-844v-477h813v-168h-813zM655 1923l197 -303h-123l-305 303h231z" />
    <glyph glyph-name="Eacute" unicode="&#xc9;" horiz-adv-x="1366" 
d="M375 680v-512h880v-168h-1071v1493h1035v-168h-844v-477h813v-168h-813zM752 1923h229l-305 -303h-123z" />
    <glyph glyph-name="Ecircumflex" unicode="&#xca;" horiz-adv-x="1366" 
d="M375 680v-512h880v-168h-1071v1493h1035v-168h-844v-477h813v-168h-813zM608 1925h195l196 -307h-129l-163 197l-162 -197h-133z" />
    <glyph glyph-name="Edieresis" unicode="&#xcb;" horiz-adv-x="1366" 
d="M375 680v-512h880v-168h-1071v1493h1035v-168h-844v-477h813v-168h-813zM645 1872v-211h-213v211h213zM977 1872v-211h-213v211h213z" />
    <glyph glyph-name="Igrave" unicode="&#xcc;" horiz-adv-x="569" 
d="M395 1493v-1493h-190v1493h190zM233 1923l197 -303h-123l-305 303h231z" />
    <glyph glyph-name="Iacute" unicode="&#xcd;" horiz-adv-x="569" 
d="M395 1493v-1493h-190v1493h190zM342 1923h231l-305 -303h-123z" />
    <glyph glyph-name="Icircumflex" unicode="&#xce;" horiz-adv-x="569" 
d="M395 1493v-1493h-190v1493h190zM195 1925h194l197 -307h-129l-166 197l-162 -197h-131z" />
    <glyph glyph-name="Idieresis" unicode="&#xcf;" horiz-adv-x="569" 
d="M395 1493v-1493h-190v1493h190zM231 1858v-211h-213v211h213zM563 1858v-211h-213v211h213z" />
    <glyph glyph-name="Eth" unicode="&#xd0;" horiz-adv-x="1478" 
d="M182 694h-141v137h141v662h578q283 0 444.5 -199t161.5 -546q0 -349 -161.5 -548.5t-444.5 -199.5h-578v694zM373 694v-526h354q220 0 334.5 147.5t114.5 432.5q0 283 -113 428q-116 149 -336 149h-354v-494h350v-137h-350z" />
    <glyph glyph-name="Ntilde" unicode="&#xd1;" horiz-adv-x="1478" 
d="M1323 1493v-1493h-217l-770 1210v-1210h-180v1493h206l781 -1221v1221h180zM956 1876h119q-30 -213 -184 -213q-29 0 -56 7.5t-118 41.5q-66 27 -101 27q-45 0 -67 -74h-117q17 101 63 156t113 55q31 0 55.5 -6.5t88.5 -32.5q86 -35 129 -35q52 0 75 74z" />
    <glyph glyph-name="Ograve" unicode="&#xd2;" horiz-adv-x="1593" 
d="M797 1518q328 0 525.5 -217t197.5 -578q0 -184 -68.5 -347t-189.5 -265q-187 -158 -463 -158q-160 0 -294.5 56.5t-228.5 158t-146 247.5t-52 320q0 231 90 409t253.5 276t375.5 98zM797 1350q-238 0 -383.5 -169t-145.5 -446t146 -445.5t385 -168.5q236 0 383 168
t147 438q0 284 -144.5 453.5t-387.5 169.5zM733 1923l199 -303h-125l-303 303h229z" />
    <glyph glyph-name="Oacute" unicode="&#xd3;" horiz-adv-x="1593" 
d="M797 1518q328 0 525.5 -217t197.5 -578q0 -184 -68.5 -347t-189.5 -265q-187 -158 -463 -158q-160 0 -294.5 56.5t-228.5 158t-146 247.5t-52 320q0 231 90 409t253.5 276t375.5 98zM797 1350q-238 0 -383.5 -169t-145.5 -446t146 -445.5t385 -168.5q236 0 383 168
t147 438q0 284 -144.5 453.5t-387.5 169.5zM858 1923h229l-305 -303h-123z" />
    <glyph glyph-name="Ocircumflex" unicode="&#xd4;" horiz-adv-x="1593" 
d="M797 1518q328 0 525.5 -217t197.5 -578q0 -184 -68.5 -347t-189.5 -265q-187 -158 -463 -158q-160 0 -294.5 56.5t-228.5 158t-146 247.5t-52 320q0 231 90 409t253.5 276t375.5 98zM797 1350q-238 0 -383.5 -169t-145.5 -446t146 -445.5t385 -168.5q236 0 383 168
t147 438q0 284 -144.5 453.5t-387.5 169.5zM702 1925h193l199 -307h-131l-164 197l-162 -197h-131z" />
    <glyph glyph-name="Otilde" unicode="&#xd5;" horiz-adv-x="1593" 
d="M797 1518q328 0 525.5 -217t197.5 -578q0 -184 -68.5 -347t-189.5 -265q-187 -158 -463 -158q-160 0 -294.5 56.5t-228.5 158t-146 247.5t-52 320q0 231 90 409t253.5 276t375.5 98zM797 1350q-238 0 -383.5 -169t-145.5 -446t146 -445.5t385 -168.5q236 0 383 168
t147 438q0 284 -144.5 453.5t-387.5 169.5zM1010 1876h116q-13 -105 -60 -159t-122 -54q-29 0 -56 7.5t-118 41.5q-66 27 -100 27q-49 0 -68 -74h-119q17 101 63 156t113 55q33 0 57.5 -6.5t86.5 -32.5q89 -35 129 -35q55 0 78 74z" />
    <glyph glyph-name="Odieresis" unicode="&#xd6;" horiz-adv-x="1593" 
d="M797 1518q328 0 525.5 -217t197.5 -578q0 -184 -68.5 -347t-189.5 -265q-187 -158 -463 -158q-160 0 -294.5 56.5t-228.5 158t-146 247.5t-52 320q0 231 90 409t253.5 276t375.5 98zM797 1350q-238 0 -383.5 -169t-145.5 -446t146 -445.5t385 -168.5q236 0 383 168
t147 438q0 284 -144.5 453.5t-387.5 169.5zM739 1872v-211h-213v211h213zM1071 1872v-211h-213v211h213z" />
    <glyph glyph-name="multiply" unicode="&#xd7;" horiz-adv-x="1196" 
d="M897 874l100 -102l-299 -299l301 -301l-102 -102l-301 301l-299 -299l-102 100l301 301l-299 299l100 100l299 -297z" />
    <glyph glyph-name="Oslash" unicode="&#xd8;" horiz-adv-x="1593" 
d="M61 39l166 182q-155 213 -155 516q0 231 90 408.5t254 275t377 97.5q281 0 471 -166l178 194l82 -73l-183 -199q83 -104 127.5 -243.5t44.5 -297.5q0 -231 -90 -408.5t-253.5 -274.5t-376.5 -97q-295 0 -494 184l-158 -172zM356 360l787 859q-146 131 -350 131
q-238 0 -384.5 -169t-146.5 -444q0 -214 94 -377zM1214 1135l-792 -863q151 -151 371 -151q238 0 384 168.5t146 443.5q0 234 -109 402z" />
    <glyph glyph-name="Ugrave" unicode="&#xd9;" horiz-adv-x="1478" 
d="M1130 1493h191v-1049q0 -224 -156 -357.5t-417 -133.5t-417.5 133.5t-156.5 357.5v1049h191v-1049q0 -151 102 -237t281 -86q178 0 280 86t102 237v1049zM682 1923l199 -303h-125l-303 303h229z" />
    <glyph glyph-name="Uacute" unicode="&#xda;" horiz-adv-x="1478" 
d="M1128 1493h191l2 -1049q0 -223 -156 -357t-417 -134t-417.5 133.5t-156.5 357.5v1049h191v-1049q0 -151 102 -237t281 -86q178 0 280 86t102 237zM793 1923h231l-305 -303h-123z" />
    <glyph glyph-name="Ucircumflex" unicode="&#xdb;" horiz-adv-x="1478" 
d="M1130 1493h191v-1049q0 -224 -156 -357.5t-417 -133.5t-417.5 133.5t-156.5 357.5v1049h191v-1049q0 -151 102 -237t281 -86q178 0 280 86t102 237v1049zM651 1925h193l198 -307h-131l-163 197l-162 -197h-131z" />
    <glyph glyph-name="Udieresis" unicode="&#xdc;" horiz-adv-x="1478" 
d="M1130 1493h191v-1049q0 -224 -156 -357.5t-417 -133.5t-417.5 133.5t-156.5 357.5v1049h191v-1049q0 -151 102 -237t281 -86q178 0 280 86t102 237v1049zM688 1872v-211h-213v211h213zM1020 1872v-211h-213v211h213z" />
    <glyph glyph-name="Yacute" unicode="&#xdd;" horiz-adv-x="1366" 
d="M791 586v-586h-191v586l-573 907h235l436 -727l426 727h228zM748 1923h231l-305 -303h-123z" />
    <glyph glyph-name="Thorn" unicode="&#xde;" horiz-adv-x="1366" 
d="M377 387v-387h-191v1493h191v-246h426q214 0 336.5 -116t122.5 -318q0 -187 -116.5 -306.5t-299.5 -119.5h-469zM377 555h397q134 0 208.5 69t74.5 193q0 123 -75 192.5t-208 69.5h-397v-524z" />
    <glyph glyph-name="germandbls" unicode="&#xdf;" horiz-adv-x="1251" 
d="M555 715v168h20q137 0 224.5 63.5t87.5 163.5q0 98 -79 160.5t-204 62.5q-132 0 -211.5 -62.5t-79.5 -168.5v-1102h-170v1102q0 98 27.5 163t89.5 115q148 113 358 113q200 0 323.5 -104t123.5 -273q0 -109 -62 -180.5t-194 -114.5q82 -26 129.5 -49.5t87.5 -60.5
q59 -54 85 -116.5t26 -148.5q0 -224 -137.5 -355.5t-370.5 -131.5q-50 0 -99 8v160h19h65q153 0 248.5 85.5t95.5 223.5q0 92 -41.5 157.5t-119.5 94.5q-69 27 -209 27h-33z" />
    <glyph glyph-name="agrave" unicode="&#xe0;" 
d="M1096 100v-129q-73 -18 -117 -18q-83 0 -125 37.5t-51 120.5q-91 -83 -177.5 -120.5t-187.5 -37.5q-163 0 -257.5 85.5t-94.5 231.5q0 207 188 287q51 21 108.5 32t235.5 34q104 13 140.5 37.5t38.5 80.5v45q0 77 -62 118.5t-178 41.5q-120 0 -180.5 -46t-71.5 -144h-172
q3 79 20 130.5t54 92.5q116 125 356 125q198 0 301 -75t103 -218v-631q0 -40 24 -62t68 -22q19 0 37 4zM797 338v192q-42 -20 -89 -30t-186 -29q-138 -20 -198 -66t-60 -131q0 -82 55.5 -127t155.5 -45q146 0 254 97q38 35 53 65.5t15 73.5zM512 1516l197 -304h-123
l-305 304h231z" />
    <glyph glyph-name="aacute" unicode="&#xe1;" 
d="M1096 100v-129q-73 -18 -117 -18q-83 0 -125 37.5t-51 120.5q-91 -83 -177.5 -120.5t-187.5 -37.5q-163 0 -257.5 85.5t-94.5 231.5q0 207 188 287q51 21 108.5 32t235.5 34q104 13 140.5 37.5t38.5 80.5v45q0 77 -62 118.5t-178 41.5q-120 0 -180.5 -46t-71.5 -144h-172
q3 79 20 130.5t54 92.5q116 125 356 125q198 0 301 -75t103 -218v-631q0 -40 24 -62t68 -22q19 0 37 4zM797 338v192q-42 -20 -89 -30t-186 -29q-138 -20 -198 -66t-60 -131q0 -82 55.5 -127t155.5 -45q146 0 254 97q38 35 53 65.5t15 73.5zM623 1516h229l-305 -304h-123z
" />
    <glyph glyph-name="acircumflex" unicode="&#xe2;" 
d="M1096 100v-129q-73 -18 -117 -18q-83 0 -125 37.5t-51 120.5q-91 -83 -177.5 -120.5t-187.5 -37.5q-163 0 -257.5 85.5t-94.5 231.5q0 207 188 287q51 21 108.5 32t235.5 34q104 13 140.5 37.5t38.5 80.5v45q0 77 -62 118.5t-178 41.5q-120 0 -180.5 -46t-71.5 -144h-172
q3 79 20 130.5t54 92.5q116 125 356 125q198 0 301 -75t103 -218v-631q0 -40 24 -62t68 -22q19 0 37 4zM797 338v192q-42 -20 -89 -30t-186 -29q-138 -20 -198 -66t-60 -131q0 -82 55.5 -127t155.5 -45q146 0 254 97q38 35 53 65.5t15 73.5zM467 1518h192l199 -308h-131
l-164 197l-162 -197h-131z" />
    <glyph glyph-name="atilde" unicode="&#xe3;" 
d="M1096 100v-129q-73 -18 -117 -18q-83 0 -125 37.5t-51 120.5q-91 -83 -177.5 -120.5t-187.5 -37.5q-163 0 -257.5 85.5t-94.5 231.5q0 207 188 287q51 21 108.5 32t235.5 34q104 13 140.5 37.5t38.5 80.5v45q0 77 -62 118.5t-178 41.5q-120 0 -180.5 -46t-71.5 -144h-172
q3 79 20 130.5t54 92.5q116 125 356 125q198 0 301 -75t103 -218v-631q0 -40 24 -62t68 -22q19 0 37 4zM797 338v192q-42 -20 -89 -30t-186 -29q-138 -20 -198 -66t-60 -131q0 -82 55.5 -127t155.5 -45q146 0 254 97q38 35 53 65.5t15 73.5zM768 1468h117
q-30 -213 -183 -213q-29 0 -56.5 8t-117.5 42q-64 26 -100 26q-49 0 -68 -74h-118q17 101 63 156t113 55q33 0 56.5 -6t86.5 -32q89 -35 129 -35q55 0 78 73z" />
    <glyph glyph-name="adieresis" unicode="&#xe4;" 
d="M1096 100v-129q-73 -18 -117 -18q-83 0 -125 37.5t-51 120.5q-91 -83 -177.5 -120.5t-187.5 -37.5q-163 0 -257.5 85.5t-94.5 231.5q0 207 188 287q51 21 108.5 32t235.5 34q104 13 140.5 37.5t38.5 80.5v45q0 77 -62 118.5t-178 41.5q-120 0 -180.5 -46t-71.5 -144h-172
q3 79 20 130.5t54 92.5q116 125 356 125q198 0 301 -75t103 -218v-631q0 -40 24 -62t68 -22q19 0 37 4zM797 338v192q-42 -20 -89 -30t-186 -29q-138 -20 -198 -66t-60 -131q0 -82 55.5 -127t155.5 -45q146 0 254 97q38 35 53 65.5t15 73.5zM500 1464v-211h-213v211h213z
M831 1464v-211h-213v211h213z" />
    <glyph glyph-name="aring" unicode="&#xe5;" 
d="M1096 100v-129q-73 -18 -117 -18q-83 0 -125 37.5t-51 120.5q-91 -83 -177.5 -120.5t-187.5 -37.5q-163 0 -257.5 85.5t-94.5 231.5q0 207 188 287q51 21 108.5 32t235.5 34q104 13 140.5 37.5t38.5 80.5v45q0 77 -62 118.5t-178 41.5q-120 0 -180.5 -46t-71.5 -144h-172
q3 79 20 130.5t54 92.5q116 125 356 125q198 0 301 -75t103 -218v-631q0 -40 24 -62t68 -22q19 0 37 4zM797 338v192q-42 -20 -89 -30t-186 -29q-138 -20 -198 -66t-60 -131q0 -82 55.5 -127t155.5 -45q146 0 254 97q38 35 53 65.5t15 73.5zM563 1544q75 0 127.5 -52.5
t52.5 -127.5q0 -73 -53 -125.5t-127 -52.5q-75 0 -127.5 52.5t-52.5 127.5q0 73 53 125.5t127 52.5zM563 1454q-37 0 -63.5 -26.5t-26.5 -63.5q0 -35 26.5 -61.5t63.5 -26.5t63.5 26.5t26.5 61.5q0 38 -26 64t-64 26z" />
    <glyph glyph-name="ae" unicode="&#xe6;" horiz-adv-x="1820" 
d="M1538 326h172q-34 -175 -155 -274t-302 -99q-118 0 -214 45t-150 125q-21 34 -33 55q-115 -120 -218.5 -172.5t-223.5 -52.5q-157 0 -250.5 86t-93.5 231q0 207 188 287q104 44 344 64q107 11 142 34t36 86v45q0 78 -61.5 119t-179.5 41q-119 0 -179.5 -46t-70.5 -144
h-172q3 80 19.5 131t53.5 92q54 60 146 92.5t207 32.5q264 0 358 -168q55 79 149 123.5t205 44.5q149 0 264.5 -76t168.5 -207q43 -111 43 -342h-791q2 -81 14.5 -132.5t42.5 -96.5q43 -67 109.5 -103t148.5 -36q208 0 283 215zM780 322v206q-42 -19 -89 -28.5t-185 -30.5
q-138 -20 -198 -65t-60 -130q0 -80 55 -126t150 -46q123 0 227 78q46 35 73 74t27 68zM944 618h602q0 146 -82 237t-213 91q-129 0 -213 -89.5t-94 -238.5z" />
    <glyph glyph-name="ccedilla" unicode="&#xe7;" horiz-adv-x="1024" 
d="M541 -47l-27 -68q27 4 57 4q77 0 119.5 -35.5t42.5 -101.5q0 -88 -67.5 -139t-184.5 -51q-59 0 -107 12.5t-149 54.5l43 84l19 -8q69 -35 105.5 -47t76.5 -12q47 0 79 26t32 66q0 35 -25.5 55.5t-69.5 20.5q-28 0 -63 -17l-25 15l64 145q-118 21 -191 76
q-100 70 -153.5 196t-53.5 289q0 267 130 426.5t348 159.5q112 0 204 -42t148 -118q61 -88 72 -231h-172q-15 112 -81 172.5t-173 60.5q-140 0 -218.5 -114t-78.5 -316q0 -191 80 -299t221 -108q219 0 262 260h172q-10 -192 -128.5 -304t-307.5 -112z" />
    <glyph glyph-name="egrave" unicode="&#xe8;" 
d="M1051 479h-791q2 -81 14.5 -132.5t42.5 -96.5q43 -67 109.5 -103t148.5 -36q209 0 281 215h172q-32 -175 -153.5 -274t-305.5 -99q-227 0 -357 151.5t-130 417.5t133.5 424t357.5 158q151 0 266.5 -75.5t168.5 -207.5q43 -111 43 -342zM264 618h602q0 145 -82.5 236.5
t-212.5 91.5q-129 0 -213 -89.5t-94 -238.5zM514 1516l199 -304h-123l-305 304h229z" />
    <glyph glyph-name="eacute" unicode="&#xe9;" 
d="M1051 479h-791q2 -81 14.5 -132.5t42.5 -96.5q43 -67 109.5 -103t148.5 -36q209 0 281 215h172q-32 -175 -153.5 -274t-305.5 -99q-227 0 -357 151.5t-130 417.5t133.5 424t357.5 158q151 0 266.5 -75.5t168.5 -207.5q43 -111 43 -342zM264 618h602q0 145 -82.5 236.5
t-212.5 91.5q-129 0 -213 -89.5t-94 -238.5zM631 1516h231l-305 -304h-123z" />
    <glyph glyph-name="ecircumflex" unicode="&#xea;" 
d="M1051 479h-791q2 -81 14.5 -132.5t42.5 -96.5q43 -67 109.5 -103t148.5 -36q209 0 281 215h172q-32 -175 -153.5 -274t-305.5 -99q-227 0 -357 151.5t-130 417.5t133.5 424t357.5 158q151 0 266.5 -75.5t168.5 -207.5q43 -111 43 -342zM264 618h602q0 145 -82.5 236.5
t-212.5 91.5q-129 0 -213 -89.5t-94 -238.5zM489 1518h195l197 -308h-129l-166 197l-162 -197h-131z" />
    <glyph glyph-name="edieresis" unicode="&#xeb;" 
d="M1051 479h-791q2 -81 14.5 -132.5t42.5 -96.5q43 -67 109.5 -103t148.5 -36q209 0 281 215h172q-32 -175 -153.5 -274t-305.5 -99q-227 0 -357 151.5t-130 417.5t133.5 424t357.5 158q151 0 266.5 -75.5t168.5 -207.5q43 -111 43 -342zM264 618h602q0 145 -82.5 236.5
t-212.5 91.5q-129 0 -213 -89.5t-94 -238.5zM526 1464v-211h-213v211h213zM858 1464v-211h-213v211h213z" />
    <glyph glyph-name="igrave" unicode="&#xec;" horiz-adv-x="569" 
d="M362 1073v-1073h-169v1073h169zM221 1516l197 -304h-123l-305 304h231z" />
    <glyph glyph-name="iacute" unicode="&#xed;" horiz-adv-x="569" 
d="M362 1073v-1073h-169v1073h169zM330 1516h231l-305 -304h-123z" />
    <glyph glyph-name="icircumflex" unicode="&#xee;" horiz-adv-x="569" 
d="M362 1073v-1073h-169v1073h169zM182 1518h195l196 -308h-129l-165 197l-162 -197h-131z" />
    <glyph glyph-name="idieresis" unicode="&#xef;" horiz-adv-x="569" 
d="M362 1073v-1073h-169v1073h169zM219 1450v-211h-213v211h213zM551 1450v-211h-213v211h213z" />
    <glyph glyph-name="eth" unicode="&#xf0;" 
d="M449 1255l-199 -92l-74 80l174 82q-62 48 -168 107l90 90q50 -22 90 -44t138 -85l198 92l82 -76l-184 -84q111 -85 177 -152.5t124 -154.5q78 -120 112.5 -234t34.5 -254q0 -278 -126 -427.5t-359 -149.5q-232 0 -358.5 150t-126.5 425q0 363 211 500q110 72 235 72
q47 0 129 -27q-81 81 -200 182zM559 946q-143 0 -225 -111.5t-82 -306.5t82 -306t225 -111q141 0 224 110.5t83 300.5q0 200 -81 312t-226 112z" />
    <glyph glyph-name="ntilde" unicode="&#xf1;" 
d="M143 1073h158v-180q71 113 153.5 162t202.5 49q155 0 247.5 -79.5t92.5 -213.5v-811h-170v743q0 97 -60 154t-161 57q-132 0 -211.5 -99t-79.5 -263v-592h-172v1073zM774 1468h119q-30 -213 -184 -213q-28 0 -54 7.5t-120 42.5q-64 26 -101 26q-45 0 -67 -74h-117
q17 102 62 156.5t112 54.5q33 0 57.5 -6t85.5 -32q89 -35 129 -35q55 0 78 73z" />
    <glyph glyph-name="ograve" unicode="&#xf2;" 
d="M557 1104q233 0 360 -152t127 -432q0 -264 -129 -415.5t-356 -151.5q-229 0 -357 152t-128 423q0 270 128 423t355 153zM559 946q-143 0 -225 -111.5t-82 -306.5t82 -306t225 -111q141 0 224 110.5t83 300.5q0 200 -81 312t-226 112zM502 1516l196 -304h-123l-305 304
h232z" />
    <glyph glyph-name="oacute" unicode="&#xf3;" 
d="M557 1104q233 0 360 -152t127 -432q0 -264 -129 -415.5t-356 -151.5q-229 0 -357 152t-128 423q0 270 128 423t355 153zM559 946q-143 0 -225 -111.5t-82 -306.5t82 -306t225 -111q141 0 224 110.5t83 300.5q0 200 -81 312t-226 112zM610 1516h232l-305 -304h-123z" />
    <glyph glyph-name="ocircumflex" unicode="&#xf4;" 
d="M557 1104q233 0 360 -152t127 -432q0 -264 -129 -415.5t-356 -151.5q-229 0 -357 152t-128 423q0 270 128 423t355 153zM559 946q-143 0 -225 -111.5t-82 -306.5t82 -306t225 -111q141 0 224 110.5t83 300.5q0 200 -81 312t-226 112zM463 1518h192l199 -308h-131
l-164 197l-162 -197h-131z" />
    <glyph glyph-name="otilde" unicode="&#xf5;" 
d="M557 1104q233 0 360 -152t127 -432q0 -264 -129 -415.5t-356 -151.5q-229 0 -357 152t-128 423q0 270 128 423t355 153zM559 946q-143 0 -225 -111.5t-82 -306.5t82 -306t225 -111q141 0 224 110.5t83 300.5q0 200 -81 312t-226 112zM770 1468h117q-13 -105 -60 -159
t-122 -54q-29 0 -55.5 8t-119.5 42q-64 26 -100 26q-49 0 -68 -74h-118q17 101 63 156t113 55q33 0 57.5 -6t85.5 -32q89 -35 129 -35q55 0 78 73z" />
    <glyph glyph-name="odieresis" unicode="&#xf6;" 
d="M557 1104q233 0 360 -152t127 -432q0 -264 -129 -415.5t-356 -151.5q-229 0 -357 152t-128 423q0 270 128 423t355 153zM559 946q-143 0 -225 -111.5t-82 -306.5t82 -306t225 -111q141 0 224 110.5t83 300.5q0 200 -81 312t-226 112zM500 1464v-211h-213v211h213z
M831 1464v-211h-213v211h213z" />
    <glyph glyph-name="divide" unicode="&#xf7;" horiz-adv-x="1196" 
d="M1094 555v-143h-992v143h992zM705 213v-213h-213v213h213zM705 967v-213h-213v213h213z" />
    <glyph glyph-name="oslash" unicode="&#xf8;" horiz-adv-x="1251" 
d="M1083 1047l-129 -146q90 -150 90 -373q0 -270 -128 -422.5t-355 -152.5q-210 0 -334 127l-125 -141l-65 57l135 151q-98 144 -98 381q0 272 128 424t357 152q207 0 340 -133l119 133zM829 760l-487 -551q88 -98 217 -98q143 0 225 111t82 306q0 134 -37 232zM295 289
l489 551q-83 106 -225 106q-143 0 -225 -111.5t-82 -306.5q0 -135 43 -239z" />
    <glyph glyph-name="ugrave" unicode="&#xf9;" 
d="M987 0h-153v150q-75 -106 -158 -151.5t-201 -45.5q-157 0 -249.5 79.5t-92.5 213.5v827h170v-760q0 -97 60 -154t161 -57q133 0 213 99t80 264v608h170v-1073zM498 1516l196 -304h-123l-305 304h232z" />
    <glyph glyph-name="uacute" unicode="&#xfa;" 
d="M987 0h-153v150q-75 -106 -158 -151.5t-201 -45.5q-157 0 -249.5 79.5t-92.5 213.5v827h170v-760q0 -97 60 -154t161 -57q133 0 213 99t80 264v608h170v-1073zM606 1516h232l-306 -304h-122z" />
    <glyph glyph-name="ucircumflex" unicode="&#xfb;" 
d="M987 0h-153v150q-75 -106 -158 -151.5t-201 -45.5q-157 0 -249.5 79.5t-92.5 213.5v827h170v-760q0 -97 60 -154t161 -57q133 0 213 99t80 264v608h170v-1073zM465 1518h194l197 -308h-129l-166 197l-162 -197h-131z" />
    <glyph glyph-name="udieresis" unicode="&#xfc;" 
d="M987 0h-153v150q-75 -106 -158 -151.5t-201 -45.5q-157 0 -249.5 79.5t-92.5 213.5v827h170v-760q0 -97 60 -154t161 -57q133 0 213 99t80 264v608h170v-1073zM502 1464v-211h-213v211h213zM834 1464v-211h-213v211h213z" />
    <glyph glyph-name="yacute" unicode="&#xfd;" horiz-adv-x="1024" 
d="M795 1073h184l-477 -1298q-25 -64 -51 -102.5t-66 -67.5q-70 -51 -160 -51q-63 0 -114 26v154q60 -13 90 -13q54 0 84.5 24t52.5 81l65 170l-362 1077h182l275 -835zM555 1516h231l-305 -304h-123z" />
    <glyph glyph-name="thorn" unicode="&#xfe;" 
d="M111 -446v1908h170v-522q56 78 141.5 121t187.5 43q209 0 334 -159.5t125 -426.5q0 -257 -125 -411t-334 -154q-104 0 -182.5 38.5t-146.5 121.5v-559h-170zM580 944q-136 0 -217.5 -113.5t-81.5 -302.5t81.5 -302t217.5 -113q139 0 225 113t86 296q0 192 -85 307
t-226 115z" />
    <glyph glyph-name="ydieresis" unicode="&#xff;" horiz-adv-x="1024" 
d="M795 1073h184l-477 -1298q-25 -64 -51 -102.5t-66 -67.5q-70 -51 -160 -51q-63 0 -114 26v154q60 -13 90 -13q54 0 84.5 24t52.5 81l65 170l-362 1077h182l275 -835zM444 1464v-211h-213v211h213zM776 1464v-211h-213v211h213z" />
    <glyph glyph-name="Amacron" unicode="&#x100;" horiz-adv-x="1366" 
d="M971 449h-576l-157 -449h-203l532 1493h246l524 -1493h-213zM918 608l-230 680l-246 -680h476zM967 1843v-143h-561v143h561z" />
    <glyph glyph-name="amacron" unicode="&#x101;" 
d="M1096 100v-129q-73 -18 -117 -18q-83 0 -125 37.5t-51 120.5q-91 -83 -177.5 -120.5t-187.5 -37.5q-163 0 -257.5 85.5t-94.5 231.5q0 207 188 287q51 21 108.5 32t235.5 34q104 13 140.5 37.5t38.5 80.5v45q0 77 -62 118.5t-178 41.5q-120 0 -180.5 -46t-71.5 -144h-172
q3 79 20 130.5t54 92.5q116 125 356 125q198 0 301 -75t103 -218v-631q0 -40 24 -62t68 -22q19 0 37 4zM797 338v192q-42 -20 -89 -30t-186 -29q-138 -20 -198 -66t-60 -131q0 -82 55.5 -127t155.5 -45q146 0 254 97q38 35 53 65.5t15 73.5zM842 1436v-144h-561v144h561z
" />
    <glyph glyph-name="Abreve" unicode="&#x102;" horiz-adv-x="1366" 
d="M971 449h-576l-157 -449h-203l532 1493h246l524 -1493h-213zM918 608l-230 680l-246 -680h476zM379 1907h119q15 -135 190 -135q83 0 130.5 35t55.5 100h121q-10 -136 -89 -206.5t-222 -70.5q-180 0 -262 117q-23 31 -32 65.5t-11 94.5z" />
    <glyph glyph-name="abreve" unicode="&#x103;" 
d="M1096 100v-129q-73 -18 -117 -18q-83 0 -125 37.5t-51 120.5q-91 -83 -177.5 -120.5t-187.5 -37.5q-163 0 -257.5 85.5t-94.5 231.5q0 207 188 287q51 21 108.5 32t235.5 34q104 13 140.5 37.5t38.5 80.5v45q0 77 -62 118.5t-178 41.5q-120 0 -180.5 -46t-71.5 -144h-172
q3 79 20 130.5t54 92.5q116 125 356 125q198 0 301 -75t103 -218v-631q0 -40 24 -62t68 -22q19 0 37 4zM797 338v192q-42 -20 -89 -30t-186 -29q-138 -20 -198 -66t-60 -131q0 -82 55.5 -127t155.5 -45q146 0 254 97q38 35 53 65.5t15 73.5zM256 1499h119q18 -135 190 -135
q83 0 131 35t56 100h120q-10 -136 -89 -206t-222 -70q-181 0 -262 116q-23 31 -32 65.5t-11 94.5z" />
    <glyph glyph-name="Aogonek" unicode="&#x104;" horiz-adv-x="1366" 
d="M971 449h-576l-157 -449h-203l532 1493h246l524 -1493q-196 -91 -196 -215q0 -113 145 -113q72 0 131 21v-92q-103 -21 -155 -21q-66 0 -142 27q-129 49 -129 166q0 73 49 126t158 101h-74zM918 608l-230 680l-246 -680h476z" />
    <glyph glyph-name="aogonek" unicode="&#x105;" 
d="M1098 100v-129q-74 -29 -115 -77.5t-41 -108.5q0 -113 148 -113q76 0 131 21v-92q-93 -21 -146 -21q-75 0 -151 27q-62 20 -95.5 62.5t-33.5 99.5q0 58 32 100.5t107 83.5q-117 21 -129 158q-89 -83 -175.5 -120.5t-189.5 -37.5q-163 0 -257.5 85.5t-94.5 231.5
q0 207 191 287q48 21 106 32t238 34q103 14 139.5 38.5t36.5 79.5v45q0 77 -62 118.5t-178 41.5q-120 0 -180.5 -46t-69.5 -144h-172q5 145 72 223q116 125 356 125q198 0 301 -74.5t103 -218.5v-631q0 -40 24 -62t68 -22q19 0 37 4zM797 338v192q-42 -20 -89 -30t-186 -29
q-138 -20 -198 -66t-60 -131q0 -82 55.5 -127t155.5 -45q146 0 254 97q38 35 53 65.5t15 73.5z" />
    <glyph glyph-name="Cacute" unicode="&#x106;" horiz-adv-x="1478" 
d="M1356 1030h-195q-17 84 -41.5 135.5t-66.5 89.5q-46 44 -125 69.5t-170 25.5q-218 0 -343.5 -166t-125.5 -453q0 -280 131 -445t354 -165q120 0 211 50t137 142q45 86 68 232h196q-67 -592 -614 -592q-288 0 -459 174q-104 109 -159.5 263.5t-55.5 338.5q0 181 54 336.5
t155 265.5q169 187 473 187q246 0 389 -121t187 -367zM831 1923h232l-305 -303h-123z" />
    <glyph glyph-name="cacute" unicode="&#x107;" horiz-adv-x="1024" 
d="M965 713h-172q-15 112 -81 172.5t-173 60.5q-139 0 -218 -113.5t-79 -314.5q0 -191 80 -299t221 -108q219 0 262 258h172q-15 -197 -130.5 -306.5t-307.5 -109.5q-218 0 -347 153t-129 412q0 267 130 426.5t348 159.5q112 0 204 -42t148 -118q61 -88 72 -231zM612 1516
h230l-305 -304h-123z" />
    <glyph glyph-name="Ccircumflex" unicode="&#x108;" horiz-adv-x="1478" 
d="M1356 1030h-195q-17 84 -41.5 135.5t-66.5 89.5q-46 44 -125 69.5t-170 25.5q-218 0 -343.5 -166t-125.5 -453q0 -280 131 -445t354 -165q120 0 211 50t137 142q45 86 68 232h196q-67 -592 -614 -592q-288 0 -459 174q-104 109 -159.5 263.5t-55.5 338.5q0 181 54 336.5
t155 265.5q169 187 473 187q246 0 389 -121t187 -367zM668 1925h194l197 -307h-129l-166 197l-162 -197h-131z" />
    <glyph glyph-name="ccircumflex" unicode="&#x109;" horiz-adv-x="1024" 
d="M965 713h-172q-15 112 -81 172.5t-173 60.5q-139 0 -218 -113.5t-79 -314.5q0 -191 80 -299t221 -108q219 0 262 258h172q-15 -197 -130.5 -306.5t-307.5 -109.5q-218 0 -347 153t-129 412q0 267 130 426.5t348 159.5q112 0 204 -42t148 -118q61 -88 72 -231zM451 1518
h192l199 -308h-131l-164 197l-162 -197h-131z" />
    <glyph glyph-name="Cdotaccent" unicode="&#x10a;" horiz-adv-x="1478" 
d="M1356 1030h-195q-17 84 -41.5 135.5t-66.5 89.5q-46 44 -125 69.5t-170 25.5q-218 0 -343.5 -166t-125.5 -453q0 -280 131 -445t354 -165q120 0 211 50t137 142q45 86 68 232h196q-67 -592 -614 -592q-288 0 -459 174q-104 109 -159.5 263.5t-55.5 338.5q0 181 54 336.5
t155 265.5q169 187 473 187q246 0 389 -121t187 -367zM889 1874v-213h-213v213h213z" />
    <glyph glyph-name="cdotaccent" unicode="&#x10b;" horiz-adv-x="1024" 
d="M965 713h-172q-15 112 -81 172.5t-173 60.5q-139 0 -218 -113.5t-79 -314.5q0 -191 80 -299t221 -108q219 0 262 258h172q-15 -197 -130.5 -306.5t-307.5 -109.5q-218 0 -347 153t-129 412q0 267 130 426.5t348 159.5q112 0 204 -42t148 -118q61 -88 72 -231zM651 1466
v-213h-213v213h213z" />
    <glyph glyph-name="Ccaron" unicode="&#x10c;" horiz-adv-x="1478" 
d="M1356 1030h-195q-17 84 -41.5 135.5t-66.5 89.5q-46 44 -125 69.5t-170 25.5q-218 0 -343.5 -166t-125.5 -453q0 -280 131 -445t354 -165q120 0 211 50t137 142q45 86 68 232h196q-67 -592 -614 -592q-288 0 -459 174q-104 109 -159.5 263.5t-55.5 338.5q0 181 54 336.5
t155 265.5q169 187 473 187q246 0 389 -121t187 -367zM877 1618h-193l-199 307h131l164 -196l162 196h131z" />
    <glyph glyph-name="ccaron" unicode="&#x10d;" horiz-adv-x="1024" 
d="M965 713h-172q-15 112 -81 172.5t-173 60.5q-139 0 -218 -113.5t-79 -314.5q0 -191 80 -299t221 -108q219 0 262 258h172q-15 -197 -130.5 -306.5t-307.5 -109.5q-218 0 -347 153t-129 412q0 267 130 426.5t348 159.5q112 0 204 -42t148 -118q61 -88 72 -231zM641 1210
h-192l-199 308h131l164 -197l162 197h131z" />
    <glyph glyph-name="Dcaron" unicode="&#x10e;" horiz-adv-x="1478" 
d="M182 0v1493h576q284 0 446 -198.5t162 -546.5q0 -349 -162.5 -548.5t-445.5 -199.5h-576zM373 168h352q221 0 336 146.5t115 430.5q0 285 -115 432.5t-336 147.5h-352v-1157zM791 1618h-195l-197 307h129l164 -196l162 196h133z" />
    <glyph glyph-name="dcaron" unicode="&#x10f;" horiz-adv-x="1316" 
d="M1014 1493v-1493h-152v141q-69 -99 -150 -143.5t-192 -44.5q-218 0 -342.5 157t-124.5 429q0 256 126 410.5t335 154.5q220 0 330 -166v555h170zM543 944q-140 0 -226 -114.5t-86 -301.5t86.5 -301t227.5 -114q135 0 217 112.5t82 298.5q0 193 -81.5 306.5t-219.5 113.5z
M1122 1493h205v-211q0 -108 -52.5 -178t-135.5 -70h-17v78q58 0 87 45.5t26 130.5h-113v205z" />
    <glyph glyph-name="Dcroat" unicode="&#x110;" horiz-adv-x="1478" 
d="M182 694h-141v137h141v662h578q283 0 444.5 -199t161.5 -546q0 -349 -161.5 -548.5t-444.5 -199.5h-578v694zM373 694v-526h354q220 0 334.5 147.5t114.5 432.5q0 283 -113 428q-116 149 -336 149h-354v-494h350v-137h-350z" />
    <glyph glyph-name="dcroat" unicode="&#x111;" 
d="M1012 1337h129v-108h-129v-1229h-152v121q-143 -168 -344 -168q-209 0 -336 161t-127 427q0 255 126 409t333 154q104 0 183 -38.5t147 -121.5v285h-307v108h307v156h170v-156zM543 936q-141 0 -226.5 -112t-85.5 -296t85.5 -295.5t226.5 -111.5q135 0 217 110t82 293
q0 189 -81 300.5t-218 111.5z" />
    <glyph glyph-name="Emacron" unicode="&#x112;" horiz-adv-x="1366" 
d="M375 680v-512h880v-168h-1071v1493h1035v-168h-844v-477h813v-168h-813zM987 1843v-143h-561v143h561z" />
    <glyph glyph-name="emacron" unicode="&#x113;" 
d="M1051 479h-791q2 -81 14.5 -132.5t42.5 -96.5q43 -67 109.5 -103t148.5 -36q209 0 281 215h172q-32 -175 -153.5 -274t-305.5 -99q-227 0 -357 151.5t-130 417.5t133.5 424t357.5 158q151 0 266.5 -75.5t168.5 -207.5q43 -111 43 -342zM264 618h602q0 145 -82.5 236.5
t-212.5 91.5q-129 0 -213 -89.5t-94 -238.5zM864 1436v-144h-561v144h561z" />
    <glyph glyph-name="Ebreve" unicode="&#x114;" horiz-adv-x="1366" 
d="M375 680v-512h880v-168h-1071v1493h1035v-168h-844v-477h813v-168h-813zM397 1907h121q15 -135 191 -135q82 0 130 35t56 100h119q-10 -136 -89.5 -206.5t-222.5 -70.5q-177 0 -262 117q-38 53 -43 160z" />
    <glyph glyph-name="ebreve" unicode="&#x115;" 
d="M1051 479h-791q2 -81 14.5 -132.5t42.5 -96.5q43 -67 109.5 -103t148.5 -36q209 0 281 215h172q-32 -175 -153.5 -274t-305.5 -99q-227 0 -357 151.5t-130 417.5t133.5 424t357.5 158q151 0 266.5 -75.5t168.5 -207.5q43 -111 43 -342zM264 618h602q0 145 -82.5 236.5
t-212.5 91.5q-129 0 -213 -89.5t-94 -238.5zM279 1499h120q15 -135 189 -135q83 0 131.5 35t54.5 100h121q-10 -136 -89 -206t-222 -70q-178 0 -262 116q-22 31 -32 66t-11 94z" />
    <glyph glyph-name="Edotaccent" unicode="&#x116;" horiz-adv-x="1366" 
d="M375 680v-512h880v-168h-1071v1493h1035v-168h-844v-477h813v-168h-813zM813 1874v-213h-213v213h213z" />
    <glyph glyph-name="edotaccent" unicode="&#x117;" 
d="M1051 479h-791q2 -81 14.5 -132.5t42.5 -96.5q43 -67 109.5 -103t148.5 -36q209 0 281 215h172q-32 -175 -153.5 -274t-305.5 -99q-227 0 -357 151.5t-130 417.5t133.5 424t357.5 158q151 0 266.5 -75.5t168.5 -207.5q43 -111 43 -342zM264 618h602q0 145 -82.5 236.5
t-212.5 91.5q-129 0 -213 -89.5t-94 -238.5zM690 1466v-213h-213v213h213z" />
    <glyph glyph-name="Eogonek" unicode="&#x118;" horiz-adv-x="1366" 
d="M375 680v-512h880v-168q-196 -90 -196 -217q0 -54 37.5 -82.5t109.5 -28.5q70 0 129 21v-92q-99 -21 -153 -21q-65 0 -144 27q-129 49 -129 166q0 74 49 127.5t158 99.5h-932v1493h1035v-168h-844v-477h813v-168h-813z" />
    <glyph glyph-name="eogonek" unicode="&#x119;" 
d="M1051 479h-791q1 -79 14.5 -131t42.5 -100q44 -66 111.5 -102.5t146.5 -36.5q103 0 175.5 55.5t107.5 161.5h172q-17 -85 -56.5 -155t-109.5 -140q-83 -88 -114 -142t-31 -112q0 -49 39 -77t108 -28q72 0 131 21v-92q-87 -19 -141 -19q-130 0 -207.5 48.5t-77.5 131.5
q0 75 58 140q16 16 82 67q-81 -16 -140 -16q-229 0 -359 151t-130 416q0 267 133.5 425.5t357.5 158.5q151 0 267.5 -75.5t167.5 -207.5q46 -115 43 -342zM266 618h602q0 145 -83 236.5t-214 91.5q-129 0 -212.5 -89.5t-92.5 -238.5z" />
    <glyph glyph-name="Ecaron" unicode="&#x11a;" horiz-adv-x="1366" 
d="M375 680v-512h880v-168h-1071v1493h1035v-168h-844v-477h813v-168h-813zM803 1618h-193l-198 307h131l164 -196l161 196h131z" />
    <glyph glyph-name="ecaron" unicode="&#x11b;" 
d="M1051 479h-791q2 -81 14.5 -132.5t42.5 -96.5q43 -67 109.5 -103t148.5 -36q209 0 281 215h172q-32 -175 -153.5 -274t-305.5 -99q-227 0 -357 151.5t-130 417.5t133.5 424t357.5 158q151 0 266.5 -75.5t168.5 -207.5q43 -111 43 -342zM264 618h602q0 145 -82.5 236.5
t-212.5 91.5q-129 0 -213 -89.5t-94 -238.5zM684 1210h-195l-196 308h129l166 -197l162 197h131z" />
    <glyph glyph-name="Gcircumflex" unicode="&#x11c;" horiz-adv-x="1593" 
d="M1452 788v-796h-121l-47 198q-110 -122 -234 -179.5t-276 -57.5q-199 0 -355 98t-242.5 275.5t-86.5 404.5q0 202 70 369t200 274q175 144 447 144q257 0 421 -125.5t204 -352.5h-195q-31 145 -146.5 227.5t-285.5 82.5q-236 0 -380 -167t-144 -442q0 -139 42 -264.5
t115 -204.5q66 -72 164.5 -111.5t212.5 -39.5q204 0 336.5 129.5t132.5 329.5v41h-455v167h623zM692 1925h195l196 -307h-129l-163 197l-162 -197h-133z" />
    <glyph glyph-name="gcircumflex" unicode="&#x11d;" 
d="M461 1518h192l199 -308h-131l-164 197l-162 -197h-131zM827 1073h158v-897q0 -189 -25.5 -299.5t-87.5 -185.5q-53 -65 -146.5 -101t-211.5 -36q-175 0 -285.5 87t-122.5 236h175q12 -92 70 -136t167 -44q160 0 226.5 89t66.5 304v55q-68 -101 -141 -146.5t-170 -45.5
q-170 0 -293 145q-135 160 -135 420q0 258 122.5 422t317.5 164q101 0 175.5 -44.5t139.5 -141.5v155zM528 946q-132 0 -205 -110.5t-73 -307.5q0 -198 73 -307.5t205 -109.5q134 0 208.5 108t74.5 303q0 204 -74 314t-209 110z" />
    <glyph glyph-name="Gbreve" unicode="&#x11e;" horiz-adv-x="1593" 
d="M1452 788v-796h-121l-47 198q-110 -122 -234 -179.5t-276 -57.5q-199 0 -355 98t-242.5 275.5t-86.5 404.5q0 202 70 369t200 274q175 144 447 144q257 0 421 -125.5t204 -352.5h-195q-31 145 -146.5 227.5t-285.5 82.5q-236 0 -380 -167t-144 -442q0 -139 42 -264.5
t115 -204.5q66 -72 164.5 -111.5t212.5 -39.5q204 0 336.5 129.5t132.5 329.5v41h-455v167h623zM510 1907h121q15 -135 190 -135q82 0 131 35.5t56 99.5h118q-10 -136 -89 -206.5t-222 -70.5q-177 0 -262 117q-38 53 -43 160z" />
    <glyph glyph-name="gbreve" unicode="&#x11f;" 
d="M244 1499h121q15 -135 190 -135q82 0 130 35t56 100h119q-10 -136 -89 -206t-220 -70q-181 0 -262 116q-23 30 -32.5 64.5t-12.5 95.5zM827 1073h158v-897q0 -189 -25.5 -299.5t-87.5 -185.5q-53 -65 -146.5 -101t-211.5 -36q-175 0 -285.5 87t-122.5 236h175
q12 -92 70 -136t167 -44q160 0 226.5 89t66.5 304v55q-68 -101 -141 -146.5t-170 -45.5q-170 0 -293 145q-135 160 -135 420q0 258 122.5 422t317.5 164q101 0 175.5 -44.5t139.5 -141.5v155zM528 946q-132 0 -205 -110.5t-73 -307.5q0 -198 73 -307.5t205 -109.5
q134 0 208.5 108t74.5 303q0 204 -74 314t-209 110z" />
    <glyph glyph-name="Gdotaccent" unicode="&#x120;" horiz-adv-x="1593" 
d="M1452 788v-796h-121l-47 198q-110 -122 -234 -179.5t-276 -57.5q-199 0 -355 98t-242.5 275.5t-86.5 404.5q0 202 70 369t200 274q175 144 447 144q257 0 421 -125.5t204 -352.5h-195q-31 145 -146.5 227.5t-285.5 82.5q-236 0 -380 -167t-144 -442q0 -139 42 -264.5
t115 -204.5q66 -72 164.5 -111.5t212.5 -39.5q204 0 336.5 129.5t132.5 329.5v41h-455v167h623zM905 1874v-213h-213v213h213z" />
    <glyph glyph-name="gdotaccent" unicode="&#x121;" 
d="M649 1464v-211h-213v211h213zM827 1073h158v-897q0 -189 -25.5 -299.5t-87.5 -185.5q-53 -65 -146.5 -101t-211.5 -36q-175 0 -285.5 87t-122.5 236h175q12 -92 70 -136t167 -44q160 0 226.5 89t66.5 304v55q-68 -101 -141 -146.5t-170 -45.5q-170 0 -293 145
q-135 160 -135 420q0 258 122.5 422t317.5 164q101 0 175.5 -44.5t139.5 -141.5v155zM528 946q-132 0 -205 -110.5t-73 -307.5q0 -198 73 -307.5t205 -109.5q134 0 208.5 108t74.5 303q0 204 -74 314t-209 110z" />
    <glyph glyph-name="Gcommaaccent" unicode="&#x122;" horiz-adv-x="1593" 
d="M1452 788v-796h-121l-47 198q-110 -122 -234 -179.5t-276 -57.5q-199 0 -355 98t-242.5 275.5t-86.5 404.5q0 202 70 369t200 274q175 144 447 144q257 0 421 -125.5t204 -352.5h-195q-31 145 -146.5 227.5t-285.5 82.5q-236 0 -380 -167t-144 -442q0 -139 42 -264.5
t115 -204.5q66 -72 164.5 -111.5t212.5 -39.5q204 0 336.5 129.5t132.5 329.5v41h-455v167h623zM690 -123h205v-211q-1 -117 -57 -184t-148 -64v78q58 0 87 45.5t26 130.5h-113v205z" />
    <glyph glyph-name="gcommaaccent" unicode="&#x123;" 
d="M645 1212h-205v211q1 117 57 184t148 64v-78l-4 -2q-115 -3 -109 -174h113v-205zM827 1073h158v-897q0 -189 -25.5 -299.5t-87.5 -185.5q-53 -65 -146.5 -101t-211.5 -36q-175 0 -285.5 87t-122.5 236h175q12 -92 70 -136t167 -44q160 0 226.5 89t66.5 304v55
q-68 -101 -141 -146.5t-170 -45.5q-170 0 -293 145q-135 160 -135 420q0 258 122.5 422t317.5 164q101 0 175.5 -44.5t139.5 -141.5v155zM528 946q-132 0 -205 -110.5t-73 -307.5q0 -198 73 -307.5t205 -109.5q134 0 208.5 108t74.5 303q0 204 -74 314t-209 110z" />
    <glyph glyph-name="Hcircumflex" unicode="&#x124;" horiz-adv-x="1478" 
d="M1128 680h-766v-680h-192v1493h190v-645h768v645h191v-1493h-191v680zM664 1925h194l197 -307h-129l-166 197l-162 -197h-131z" />
    <glyph glyph-name="hcircumflex" unicode="&#x125;" 
d="M143 1493h170v-567q75 98 152.5 138t191.5 40q157 0 247.5 -79t90.5 -214v-811h-170v743q0 112 -69 164q-62 47 -152 47q-132 0 -211.5 -99t-79.5 -263v-592h-170v1493zM135 1925h195l196 -307h-129l-166 197l-161 -197h-131z" />
    <glyph glyph-name="Hbar" unicode="&#x126;" horiz-adv-x="1478" 
d="M170 1028h-154v143h154v322h190v-322h768v322h191v-322h154v-143h-154v-1028h-191v680h-766v-680h-192v1028zM360 1028v-180h768v180h-768z" />
    <glyph glyph-name="hbar" unicode="&#x127;" 
d="M313 1337h424v-108h-424v-303q75 98 152.5 138t191.5 40q157 0 247.5 -79t90.5 -214v-811h-170v743q0 112 -69 164q-62 47 -150 47q-133 0 -213 -99t-80 -263v-592h-170v1229h-123v108h123v156h170v-156z" />
    <glyph glyph-name="Itilde" unicode="&#x128;" horiz-adv-x="569" 
d="M397 1493v-1493h-192v1493h192zM477 1876h119q-30 -213 -182 -213q-30 0 -58 8t-116 41q-69 27 -101 27q-48 0 -67 -74h-119q17 101 63 156t113 55q32 0 55 -6.5t88 -32.5q89 -35 129 -35q53 0 76 74z" />
    <glyph glyph-name="itilde" unicode="&#x129;" horiz-adv-x="569" 
d="M362 1073v-1073h-169v1073h169zM477 1468h119q-30 -213 -182 -213q-29 0 -56.5 8t-117.5 42q-66 26 -101 26q-48 0 -67 -74h-119q17 101 63 156t113 55q33 0 56.5 -6t86.5 -32q89 -35 129 -35q53 0 76 73z" />
    <glyph glyph-name="Imacron" unicode="&#x12a;" horiz-adv-x="569" 
d="M397 1493v-1493h-192v1493h192zM561 1843v-143h-520v143h520z" />
    <glyph glyph-name="imacron" unicode="&#x12b;" horiz-adv-x="569" 
d="M369 1073v-1073h-170v1073h170zM537 1436v-144h-506v144h506z" />
    <glyph glyph-name="Ibreve" unicode="&#x12c;" horiz-adv-x="569" 
d="M385 1493v-1493h-192v1493h192zM-25 1907h121q15 -135 189 -135q83 0 131.5 35t54.5 100h121q-10 -136 -89 -206.5t-222 -70.5q-178 0 -263 117q-23 31 -32 65.5t-11 94.5z" />
    <glyph glyph-name="ibreve" unicode="&#x12d;" horiz-adv-x="569" 
d="M362 1073v-1073h-169v1073h169zM-25 1499h121q15 -135 189 -135q83 0 131.5 35t54.5 100h121q-10 -136 -89 -206t-222 -70q-179 0 -263 116q-22 31 -32 66t-11 94z" />
    <glyph glyph-name="Iogonek" unicode="&#x12e;" horiz-adv-x="569" 
d="M397 1493v-1493q-114 -102 -114 -219q0 -48 28.5 -77.5t75.5 -29.5q33 0 92 19v-92q-70 -19 -121 -19q-100 0 -161.5 49.5t-61.5 130.5q0 68 35.5 121.5t122.5 116.5h-88v1493h192z" />
    <glyph glyph-name="iogonek" unicode="&#x12f;" horiz-adv-x="454" 
d="M307 1073v-1073q-46 -42 -77 -102t-31 -109q0 -52 28 -83.5t74 -31.5q29 0 88 19v-92q-70 -19 -119 -19q-97 0 -158 50t-61 130q0 65 33 117t119 121h-66v1073h170zM307 1493v-215h-172v215h172z" />
    <glyph glyph-name="Idotaccent" unicode="&#x130;" horiz-adv-x="569" 
d="M399 1493v-1493h-192v1493h192zM401 1874v-213h-213v213h213z" />
    <glyph glyph-name="dotlessi" unicode="&#x131;" horiz-adv-x="569" 
d="M365 1073v-1073h-172v1073h172z" />
    <glyph glyph-name="IJ" unicode="&#x132;" horiz-adv-x="1505" 
d="M401 1493v-1493h-192v1493h192zM1153 1493h190v-1120q0 -194 -113 -307t-308 -113q-192 0 -304 106.5t-112 288.5v131h194v-96q0 -130 58 -200t166 -70q57 0 105.5 24.5t76.5 67.5q47 68 47 237v1051z" />
    <glyph glyph-name="ij" unicode="&#x133;" horiz-adv-x="909" 
d="M350 1073v-1073h-170v1073h170zM350 1493v-215h-172v215h172zM573 1073h170v-1296q0 -223 -292 -223q-28 0 -58 6v145q23 -2 41 -2q79 0 109 30.5t30 110.5v1229zM743 1493v-215h-170v215h170z" />
    <glyph glyph-name="Jcircumflex" unicode="&#x134;" horiz-adv-x="1024" 
d="M682 1493h190v-1120q0 -194 -113 -307t-308 -113q-192 0 -304 106.5t-112 288.5v131h194v-96q0 -130 58.5 -200t165.5 -70q57 0 105.5 24.5t76.5 67.5q47 68 47 237v1051zM653 1925h193l198 -307h-131l-163 197l-162 -197h-131z" />
    <glyph glyph-name="jcircumflex" unicode="&#x135;" horiz-adv-x="454" 
d="M143 1073h170v-1296q0 -110 -74 -166.5t-219 -56.5q-27 0 -57 6v145q23 -2 41 -2q79 0 109 30.5t30 110.5v1229zM123 1518h194l197 -308h-129l-166 197l-162 -197h-131z" />
    <glyph glyph-name="Kcommaaccent" unicode="&#x136;" horiz-adv-x="1366" 
d="M352 522v-522h-190v1493h190v-756l744 756h245l-608 -608l615 -885h-226l-526 766zM612 -123h205v-211q-1 -117 -57 -184t-148 -64v78q58 0 87 45.5t26 130.5h-113v205z" />
    <glyph glyph-name="kcommaaccent" unicode="&#x137;" horiz-adv-x="1024" 
d="M289 1493v-875l454 455h220l-373 -371l438 -702h-211l-362 582l-166 -164v-418h-170v1493h170zM444 -123h205v-211q-1 -117 -57 -184t-148 -64v78q58 0 87 45.5t26 130.5h-113v205z" />
    <glyph glyph-name="kgreenlandic" unicode="&#x138;" horiz-adv-x="1024" 
d="M217 367v-367h-133v1044h133v-528l520 528h172l-426 -426l430 -618h-157l-369 535z" />
    <glyph glyph-name="Lacute" unicode="&#x139;" 
d="M354 1493v-1325h738v-168h-928v1493h190zM340 1923h231l-305 -303h-123z" />
    <glyph glyph-name="lacute" unicode="&#x13a;" horiz-adv-x="454" 
d="M311 1493v-1493h-172v1493h172zM326 1923h231l-305 -303h-123z" />
    <glyph glyph-name="Lcommaaccent" unicode="&#x13b;" 
d="M354 1493v-1325h738v-168h-928v1493h190zM526 -123h205v-211q-1 -117 -57 -184t-148 -64v78q58 0 87 45.5t26 130.5h-113v205z" />
    <glyph glyph-name="lcommaaccent" unicode="&#x13c;" horiz-adv-x="454" 
d="M311 1493v-1493h-172v1493h172zM129 -123h205v-211q-1 -117 -57 -184t-148 -64v78q58 0 87 45.5t26 130.5h-113v205z" />
    <glyph glyph-name="Lcaron" unicode="&#x13d;" 
d="M354 1493v-1325h738v-168h-928v1493h190zM559 1493h205v-211q0 -108 -53 -178t-136 -70h-16v78q58 0 87 45.5t26 130.5h-113v205z" />
    <glyph glyph-name="lcaron" unicode="&#x13e;" horiz-adv-x="612" 
d="M311 1493v-1493h-172v1493h172zM420 1493h205v-211q0 -108 -53 -178t-136 -70h-16v78q58 0 86.5 45.5t25.5 130.5h-112v205z" />
    <glyph glyph-name="Ldot" unicode="&#x13f;" 
d="M354 1493v-1325h738v-168h-928v1493h190zM698 836h209v-215h-209v215z" />
    <glyph glyph-name="ldot" unicode="&#x140;" horiz-adv-x="684" 
d="M324 1493v-1493h-170v1493h170zM461 836h209v-215h-209v215z" />
    <glyph glyph-name="Lslash" unicode="&#x141;" 
d="M354 831l351 248v-155l-351 -250v-506h776v-168h-966v573l-164 -116v157l164 115v764h190v-662z" />
    <glyph glyph-name="lslash" unicode="&#x142;" horiz-adv-x="454" 
d="M299 862l135 105v-131l-135 -105v-731h-170v641l-129 -102v131l129 102v721h170v-631z" />
    <glyph glyph-name="Nacute" unicode="&#x143;" horiz-adv-x="1478" 
d="M1323 1493v-1493h-215l-772 1210v-1210h-180v1493h206l781 -1221v1221h180zM799 1923h229l-305 -303h-123z" />
    <glyph glyph-name="nacute" unicode="&#x144;" 
d="M143 1073h158v-180q71 113 153.5 162t202.5 49q155 0 247.5 -79.5t92.5 -213.5v-811h-170v743q0 97 -60 154t-161 57q-132 0 -211.5 -99t-79.5 -263v-592h-172v1073zM635 1516h231l-305 -304h-123z" />
    <glyph glyph-name="Ncommaaccent" unicode="&#x145;" horiz-adv-x="1478" 
d="M1323 1493v-1493h-215l-772 1210v-1210h-180v1493h206l781 -1221v1221h180zM610 -123h205v-211q-1 -117 -57 -184t-148 -64v78q58 0 87 45.5t26 130.5h-113v205z" />
    <glyph glyph-name="ncommaaccent" unicode="&#x146;" 
d="M143 1073h158v-180q71 113 153.5 162t202.5 49q155 0 247.5 -79.5t92.5 -213.5v-811h-170v743q0 97 -60 154t-161 57q-132 0 -211.5 -99t-79.5 -263v-592h-172v1073zM469 -123h205v-211q-1 -117 -57 -184t-148 -64v78q58 0 87 45.5t26 130.5h-113v205z" />
    <glyph glyph-name="Ncaron" unicode="&#x147;" horiz-adv-x="1478" 
d="M1323 1493v-1493h-215l-772 1210v-1210h-180v1493h206l781 -1221v1221h180zM838 1618h-195l-197 307h129l164 -196l162 196h133z" />
    <glyph glyph-name="ncaron" unicode="&#x148;" 
d="M143 1073h158v-180q71 113 153.5 162t202.5 49q155 0 247.5 -79.5t92.5 -213.5v-811h-170v743q0 97 -60 154t-161 57q-132 0 -211.5 -99t-79.5 -263v-592h-172v1073zM668 1210h-195l-197 308h130l165 -197l162 197h131z" />
    <glyph glyph-name="napostrophe" unicode="&#x149;" horiz-adv-x="1236" 
d="M242 1073h157v-180q71 113 154 162t203 49q155 0 247.5 -79.5t92.5 -213.5v-811h-170v743q0 97 -60 154t-161 57q-132 0 -211.5 -99t-79.5 -263v-592h-172v1073zM20 1565h205v-211q0 -108 -52.5 -178t-135.5 -70h-17v78q58 0 87 45.5t26 130.5h-113v205z" />
    <glyph glyph-name="Eng" unicode="&#x14a;" horiz-adv-x="1480" 
d="M840 -606v174q37 -4 84 -4q123 0 161 61q15 22 19 54.5t4 134.5v1210q0 156 -66 231q-37 44 -103 69.5t-144 25.5q-183 0 -299 -131q-113 -127 -113 -367v-852h-190v1475h169v-246q112 157 223.5 223t260.5 66q95 0 183 -31t151 -86q118 -106 118 -314v-1329
q0 -118 -20.5 -182.5t-71.5 -110.5q-92 -77 -260 -77q-27 0 -106 6z" />
    <glyph glyph-name="eng" unicode="&#x14b;" 
d="M649 -440v147q25 -2 51 -2q87 0 111 43q11 17 13.5 44t2.5 120v833q0 95 -57 152t-154 57q-138 0 -218.5 -97.5t-80.5 -264.5v-592h-172v1073h158v-180q86 118 166 164.5t197 46.5q170 0 262 -103q69 -72 69 -217v-919q0 -118 -13.5 -166.5t-55.5 -83.5q-67 -61 -195 -61
q-29 0 -84 6z" />
    <glyph glyph-name="Omacron" unicode="&#x14c;" horiz-adv-x="1593" 
d="M797 1518q328 0 525.5 -217t197.5 -578q0 -184 -68.5 -347t-189.5 -265q-187 -158 -463 -158q-160 0 -294.5 56.5t-228.5 158t-146 247.5t-52 320q0 231 90 409t253.5 276t375.5 98zM797 1350q-238 0 -383.5 -169t-145.5 -446t146 -445.5t385 -168.5q236 0 383 168
t147 438q0 284 -144.5 453.5t-387.5 169.5zM1079 1843v-143h-561v143h561z" />
    <glyph glyph-name="omacron" unicode="&#x14d;" 
d="M557 1104q233 0 360 -152t127 -432q0 -264 -129 -415.5t-356 -151.5q-229 0 -357 152t-128 423q0 270 128 423t355 153zM559 946q-143 0 -225 -111.5t-82 -306.5t82 -306t225 -111q141 0 224 110.5t83 300.5q0 200 -81 312t-226 112zM840 1436v-144h-561v144h561z" />
    <glyph glyph-name="Obreve" unicode="&#x14e;" horiz-adv-x="1593" 
d="M797 1518q328 0 525.5 -217t197.5 -578q0 -184 -68.5 -347t-189.5 -265q-187 -158 -463 -158q-160 0 -294.5 56.5t-228.5 158t-146 247.5t-52 320q0 231 90 409t253.5 276t375.5 98zM797 1350q-238 0 -383.5 -169t-145.5 -446t146 -445.5t385 -168.5q236 0 383 168
t147 438q0 284 -144.5 453.5t-387.5 169.5zM487 1907h119q15 -135 191 -135q83 0 130.5 35t55.5 100h121q-10 -136 -89 -206.5t-222 -70.5q-181 0 -263 117q-23 31 -32 65.5t-11 94.5z" />
    <glyph glyph-name="obreve" unicode="&#x14f;" 
d="M557 1104q233 0 360 -152t127 -432q0 -264 -129 -415.5t-356 -151.5q-229 0 -357 152t-128 423q0 270 128 423t355 153zM559 946q-143 0 -225 -111.5t-82 -306.5t82 -306t225 -111q141 0 224 110.5t83 300.5q0 200 -81 312t-226 112zM250 1499h119q15 -135 190 -135
q82 0 130 35t56 100h121q-12 -136 -91 -206t-220 -70q-181 0 -262 116q-23 31 -32 65.5t-11 94.5z" />
    <glyph glyph-name="Ohungarumlaut" unicode="&#x150;" horiz-adv-x="1593" 
d="M797 1518q328 0 525.5 -217t197.5 -578q0 -184 -68.5 -347t-189.5 -265q-187 -158 -463 -158q-160 0 -294.5 56.5t-228.5 158t-146 247.5t-52 320q0 231 90 409t253.5 276t375.5 98zM797 1350q-238 0 -383.5 -169t-145.5 -446t146 -445.5t385 -168.5q236 0 383 168
t147 438q0 284 -144.5 453.5t-387.5 169.5zM745 1923h232l-305 -307h-123zM1102 1923h231l-305 -307h-123z" />
    <glyph glyph-name="ohungarumlaut" unicode="&#x151;" 
d="M557 1104q233 0 360 -152t127 -432q0 -264 -129 -415.5t-356 -151.5q-229 0 -357 152t-128 423q0 270 128 423t355 153zM559 946q-143 0 -225 -111.5t-82 -306.5t82 -306t225 -111q141 0 224 110.5t83 300.5q0 200 -81 312t-226 112zM492 1516h229l-305 -308h-123z
M848 1516h229l-305 -308h-123z" />
    <glyph glyph-name="OE" unicode="&#x152;" horiz-adv-x="2048" 
d="M1266 670v-502h698v-168h-889v152q-71 -100 -162 -146.5t-215 -46.5q-131 0 -242 48t-190 140q-178 204 -178 582q0 423 209 629q77 75 184 117.5t219 42.5q246 0 375 -181v156h879v-168h-688v-487h671v-168h-671zM1075 373v731q-122 246 -375 246q-206 0 -317 -160
q-55 -83 -79.5 -189.5t-24.5 -263.5t24.5 -262t79.5 -188q111 -160 315 -160q255 0 377 246z" />
    <glyph glyph-name="oe" unicode="&#x153;" horiz-adv-x="1933" 
d="M1647 326h172q-32 -175 -153 -274t-304 -99q-131 0 -233.5 54.5t-163.5 156.5q-129 -211 -398 -211q-233 0 -359 150t-126 427q0 275 126 424.5t359 149.5q278 0 402 -217q63 103 166 160t229 57q151 0 266 -75.5t168 -207.5q43 -111 43 -342h-790q2 -81 14.5 -132.5
t42.5 -96.5q43 -67 109.5 -103t148.5 -36q209 0 281 215zM567 946q-143 0 -225 -111.5t-82 -304.5q0 -196 82 -307.5t225 -111.5t225 110.5t82 302.5q0 199 -81 310.5t-226 111.5zM1055 618h602q0 146 -82 237t-213 91q-130 0 -213 -89t-94 -239z" />
    <glyph glyph-name="Racute" unicode="&#x154;" horiz-adv-x="1478" 
d="M381 643v-643h-191v1493h689q221 0 337.5 -102.5t116.5 -296.5q0 -129 -54.5 -211.5t-180.5 -145.5q84 -36 125 -79.5t58.5 -113t18.5 -196.5q3 -150 20 -207t71 -94v-47h-232q-43 97 -43 244l2 133q0 138 -59 202t-187 64h-491zM381 811h461q152 0 222.5 62t70.5 196
q0 133 -78 199q-65 57 -215 57h-461v-514zM784 1923h232l-305 -303h-123z" />
    <glyph glyph-name="racute" unicode="&#x155;" horiz-adv-x="681" 
d="M141 1073h158v-194q74 120 142 172.5t151 52.5q22 0 65 -6v-174q-177 4 -259.5 -84.5t-84.5 -282.5v-557h-172v1073zM446 1516h232l-305 -304h-123z" />
    <glyph glyph-name="Rcommaaccent" unicode="&#x156;" horiz-adv-x="1478" 
d="M381 643v-643h-191v1493h689q221 0 337.5 -102.5t116.5 -296.5q0 -129 -54.5 -211.5t-180.5 -145.5q84 -36 125 -79.5t58.5 -113t18.5 -196.5q3 -150 20 -207t71 -94v-47h-232q-43 97 -43 244l2 133q0 138 -59 202t-187 64h-491zM381 811h461q152 0 222.5 62t70.5 196
q0 133 -78 199q-65 57 -215 57h-461v-514zM653 -123h205v-211q-1 -117 -57 -184t-148 -64v78q58 0 87 45.5t26 130.5h-113v205z" />
    <glyph glyph-name="rcommaaccent" unicode="&#x157;" horiz-adv-x="681" 
d="M141 1073h158v-194q74 120 142 172.5t151 52.5q22 0 65 -6v-174q-177 4 -259.5 -84.5t-84.5 -282.5v-557h-172v1073zM133 -123h205v-211q-1 -117 -57 -184t-148 -64v78q58 0 87 45.5t26 130.5h-113v205z" />
    <glyph glyph-name="Rcaron" unicode="&#x158;" horiz-adv-x="1478" 
d="M381 643v-643h-191v1493h689q221 0 337.5 -102.5t116.5 -296.5q0 -129 -54.5 -211.5t-180.5 -145.5q84 -36 125 -79.5t58.5 -113t18.5 -196.5q3 -150 20 -207t71 -94v-47h-232q-43 97 -43 244l2 133q0 138 -59 202t-187 64h-491zM381 811h461q152 0 222.5 62t70.5 196
q0 133 -78 199q-65 57 -215 57h-461v-514zM827 1618h-194l-197 307h129l164 -196l162 196h133z" />
    <glyph glyph-name="rcaron" unicode="&#x159;" horiz-adv-x="681" 
d="M141 1073h158v-194q74 120 142 172.5t151 52.5q22 0 65 -6v-174q-177 4 -259.5 -84.5t-84.5 -282.5v-557h-172v1073zM489 1210h-194l-197 308h129l166 -197l162 197h131z" />
    <glyph glyph-name="Sacute" unicode="&#x15a;" horiz-adv-x="1366" 
d="M1221 1055h-181q-1 147 -97 225t-275 78q-151 0 -242.5 -69t-91.5 -183q0 -86 55 -135t191 -86l374 -101q152 -41 235 -138.5t83 -235.5q0 -97 -44.5 -189.5t-119.5 -152.5q-149 -115 -420 -115q-348 0 -502 213q-45 62 -66 134.5t-22 174.5h181q-3 -133 77 -229
q105 -125 344 -125q189 0 275 63q48 34 77 90.5t29 116.5q0 88 -66 146.5t-208 95.5l-371 98q-293 76 -293 348q0 203 142.5 321t388.5 118q189 0 317.5 -67t190.5 -196q25 -53 32 -88.5t7 -111.5zM741 1923h232l-305 -303h-123z" />
    <glyph glyph-name="sacute" unicode="&#x15b;" horiz-adv-x="1024" 
d="M897 774h-180q-3 85 -57.5 128.5t-157.5 43.5q-105 0 -166.5 -43.5t-61.5 -118.5q0 -57 47 -92.5t152 -60.5l164 -39q160 -38 231.5 -108.5t71.5 -190.5q0 -155 -120 -247.5t-322 -92.5q-211 0 -316.5 90t-111.5 276h180q7 -56 17.5 -84.5t31.5 -52.5q68 -71 213 -71
q112 0 181 46.5t69 123.5q0 57 -38.5 91t-127.5 56l-160 39q-190 46 -265 114.5t-75 194.5q0 149 112.5 238.5t299.5 89.5q186 0 286.5 -86t102.5 -244zM563 1516h232l-306 -304h-122z" />
    <glyph glyph-name="Scircumflex" unicode="&#x15c;" horiz-adv-x="1366" 
d="M1221 1055h-181q-1 147 -97 225t-275 78q-151 0 -242.5 -69t-91.5 -183q0 -86 55 -135t191 -86l374 -101q152 -41 235 -138.5t83 -235.5q0 -97 -44.5 -189.5t-119.5 -152.5q-149 -115 -420 -115q-348 0 -502 213q-45 62 -66 134.5t-22 174.5h181q-3 -133 77 -229
q105 -125 344 -125q189 0 275 63q48 34 77 90.5t29 116.5q0 88 -66 146.5t-208 95.5l-371 98q-293 76 -293 348q0 203 142.5 321t388.5 118q189 0 317.5 -67t190.5 -196q25 -53 32 -88.5t7 -111.5zM580 1925h194l197 -307h-129l-166 197l-162 -197h-131z" />
    <glyph glyph-name="scircumflex" unicode="&#x15d;" horiz-adv-x="1024" 
d="M897 774h-180q-3 85 -57.5 128.5t-157.5 43.5q-105 0 -166.5 -43.5t-61.5 -118.5q0 -57 47 -92.5t152 -60.5l164 -39q160 -38 231.5 -108.5t71.5 -190.5q0 -155 -120 -247.5t-322 -92.5q-211 0 -316.5 90t-111.5 276h180q7 -56 17.5 -84.5t31.5 -52.5q68 -71 213 -71
q112 0 181 46.5t69 123.5q0 57 -38.5 91t-127.5 56l-160 39q-190 46 -265 114.5t-75 194.5q0 149 112.5 238.5t299.5 89.5q186 0 286.5 -86t102.5 -244zM414 1518h194l197 -308h-129l-164 197l-162 -197h-133z" />
    <glyph glyph-name="Scedilla" unicode="&#x15e;" horiz-adv-x="1366" 
d="M692 -49l-30 -66q27 4 57 4q77 0 119.5 -35.5t42.5 -101.5q0 -89 -67.5 -139.5t-184.5 -50.5q-61 0 -110.5 13.5t-145.5 55.5l43 82l18 -8q71 -36 107 -47.5t75 -11.5q47 0 79 26t32 66q0 35 -25 55.5t-69 20.5q-27 0 -64 -15l-22 13l63 141q-18 6 -22 6l-90 14
q-186 40 -292.5 175.5t-101.5 326.5h181q-3 -133 77 -229q105 -125 345 -125q188 0 274 63q48 34 77 90.5t29 116.5q0 88 -66 146.5t-208 95.5l-371 98q-292 76 -292 348q0 203 142 321t388 118q189 0 317.5 -67t190.5 -196q25 -53 32 -88.5t7 -111.5h-180q-1 147 -97.5 225
t-275.5 78q-151 0 -242.5 -69t-91.5 -183q0 -86 55 -135t191 -86l375 -101q152 -41 234.5 -138.5t82.5 -235.5q0 -132 -75 -243.5t-199 -162.5q-114 -45 -312 -53z" />
    <glyph glyph-name="scedilla" unicode="&#x15f;" horiz-adv-x="1024" 
d="M500 -49l-29 -66q27 4 57 4q77 0 119.5 -35.5t42.5 -101.5q0 -88 -67.5 -139t-184.5 -51q-61 0 -111.5 13.5t-144.5 55.5l43 82l19 -8q71 -36 107 -47.5t75 -11.5q47 0 79 26t32 66q0 35 -25.5 55.5t-69.5 20.5q-26 0 -63 -15l-23 13l64 145q-344 35 -350 362h180
q7 -56 17.5 -84.5t31.5 -52.5q68 -71 213 -71q112 0 181 46.5t69 123.5q0 57 -38.5 91t-127.5 56l-160 39q-190 46 -265 114.5t-75 194.5q0 149 112.5 238.5t299.5 89.5q186 0 286.5 -86t102.5 -244h-180q-3 85 -57.5 128.5t-157.5 43.5q-105 0 -166.5 -43.5t-61.5 -118.5
q0 -57 47 -92.5t152 -60.5l164 -39q160 -38 231.5 -108.5t71.5 -190.5q0 -97 -53.5 -176.5t-147.5 -120.5q-76 -34 -239 -45z" />
    <glyph glyph-name="Scaron" unicode="&#x160;" horiz-adv-x="1366" 
d="M1221 1055h-181q-1 147 -97 225t-275 78q-151 0 -242.5 -69t-91.5 -183q0 -86 55 -135t191 -86l374 -101q152 -41 235 -138.5t83 -235.5q0 -97 -44.5 -189.5t-119.5 -152.5q-149 -115 -420 -115q-348 0 -502 213q-45 62 -66 134.5t-22 174.5h181q-3 -133 77 -229
q105 -125 344 -125q189 0 275 63q48 34 77 90.5t29 116.5q0 88 -66 146.5t-208 95.5l-371 98q-293 76 -293 348q0 203 142.5 321t388.5 118q189 0 317.5 -67t190.5 -196q25 -53 32 -88.5t7 -111.5zM778 1618h-192l-199 307h131l164 -196l162 196h131z" />
    <glyph glyph-name="scaron" unicode="&#x161;" horiz-adv-x="1024" 
d="M897 774h-180q-3 85 -57.5 128.5t-157.5 43.5q-105 0 -166.5 -43.5t-61.5 -118.5q0 -57 47 -92.5t152 -60.5l164 -39q160 -38 231.5 -108.5t71.5 -190.5q0 -155 -120 -247.5t-322 -92.5q-211 0 -316.5 90t-111.5 276h180q7 -56 17.5 -84.5t31.5 -52.5q68 -71 213 -71
q112 0 181 46.5t69 123.5q0 57 -38.5 91t-127.5 56l-160 39q-190 46 -265 114.5t-75 194.5q0 149 112.5 238.5t299.5 89.5q186 0 286.5 -86t102.5 -244zM602 1210h-194l-197 308h129l166 -197l162 197h131z" />
    <glyph glyph-name="Tcommaaccent" unicode="&#x162;" horiz-adv-x="1251" 
d="M725 1325v-1325h-190v1325h-492v168h1171v-168h-489zM532 -123h205v-211q-1 -117 -57 -184t-148 -64v78q58 0 87 45.5t26 130.5h-113v205z" />
    <glyph glyph-name="tcommaaccent" unicode="&#x163;" horiz-adv-x="569" 
d="M520 1073v-139h-176v-735q0 -57 19.5 -77t74.5 -20q44 0 82 9v-144q-80 -14 -139 -14q-100 0 -153.5 43.5t-53.5 126.5v811h-145v139h145v295h170v-295h176zM227 -123h205v-211q-1 -117 -57 -184t-148 -64v78q58 0 87 45.5t26 130.5h-113v205z" />
    <glyph glyph-name="Tcaron" unicode="&#x164;" horiz-adv-x="1251" 
d="M725 1325v-1325h-190v1325h-492v168h1171v-168h-489zM727 1618h-195l-196 307h129l164 -196l162 196h133z" />
    <glyph glyph-name="tcaron" unicode="&#x165;" horiz-adv-x="649" 
d="M520 1073v-139h-176v-735q0 -57 19.5 -77t74.5 -20q44 0 82 9v-144q-80 -14 -139 -14q-100 0 -153.5 43.5t-53.5 126.5v811h-145v139h145v295h170v-295h176zM453 1640h204v-210q-1 -117 -56.5 -184t-147.5 -64v78q58 0 86.5 45.5t25.5 130.5h-112v204z" />
    <glyph glyph-name="Tbar" unicode="&#x166;" horiz-adv-x="1251" 
d="M535 825h-328v138h328v362h-492v168h1171v-168h-489v-362h328v-138h-328v-825h-190v825z" />
    <glyph glyph-name="tbar" unicode="&#x167;" horiz-adv-x="569" 
d="M520 111v-144q-80 -14 -139 -14q-100 0 -153.5 43.5t-53.5 126.5v532h-125v109h125v170h-145v139h145v295h170v-295h176v-139h-176v-170h156v-109h-156v-456q0 -57 19.5 -77t74.5 -20q44 0 82 9z" />
    <glyph glyph-name="Utilde" unicode="&#x168;" horiz-adv-x="1478" 
d="M1130 1493h191v-1049q0 -224 -156.5 -357.5t-419.5 -133.5q-265 0 -418 131.5t-153 359.5v1049h191v-1049q0 -162 108 -245q110 -78 272 -78q180 0 282.5 86t102.5 237v1049zM934 1876h119q-30 -213 -185 -213q-29 0 -56 7.5t-118 41.5q-66 27 -100 27q-46 0 -68 -74
h-116q17 102 62 156.5t112 54.5q33 0 57 -6.5t86 -32.5q89 -35 129 -35q55 0 78 74z" />
    <glyph glyph-name="utilde" unicode="&#x169;" 
d="M987 0h-153v150q-75 -106 -158 -151.5t-201 -45.5q-157 0 -249.5 79.5t-92.5 213.5v827h170v-760q0 -97 60 -154t161 -57q133 0 213 99t80 264v608h170v-1073zM764 1468h119q-30 -213 -185 -213q-28 0 -54 7.5t-120 42.5q-64 26 -100 26q-46 0 -68 -74h-116
q17 102 62 156.5t112 54.5q33 0 57.5 -6t85.5 -32q89 -35 129 -35q55 0 78 73z" />
    <glyph glyph-name="Umacron" unicode="&#x16a;" horiz-adv-x="1478" 
d="M1130 1493h191v-1049q0 -224 -156.5 -357.5t-419.5 -133.5q-265 0 -418 131.5t-153 359.5v1049h191v-1049q0 -162 108 -245q110 -78 272 -78q180 0 282.5 86t102.5 237v1049zM1028 1843v-143h-561v143h561z" />
    <glyph glyph-name="umacron" unicode="&#x16b;" 
d="M987 0h-153v150q-75 -106 -158 -151.5t-201 -45.5q-157 0 -249.5 79.5t-92.5 213.5v827h170v-760q0 -97 60 -154t161 -57q133 0 213 99t80 264v608h170v-1073zM842 1436v-144h-561v144h561z" />
    <glyph glyph-name="Ubreve" unicode="&#x16c;" horiz-adv-x="1478" 
d="M1130 1493h191v-1049q0 -224 -156.5 -357.5t-419.5 -133.5q-265 0 -418 131.5t-153 359.5v1049h191v-1049q0 -162 108 -245q110 -78 272 -78q180 0 282.5 86t102.5 237v1049zM430 1907h119q15 -135 190 -135q83 0 131 35t56 100h121q-10 -136 -89.5 -206.5t-222.5 -70.5
q-180 0 -262 117q-23 31 -32 65.5t-11 94.5z" />
    <glyph glyph-name="ubreve" unicode="&#x16d;" 
d="M987 0h-153v150q-75 -106 -158 -151.5t-201 -45.5q-157 0 -249.5 79.5t-92.5 213.5v827h170v-760q0 -97 60 -154t161 -57q133 0 213 99t80 264v608h170v-1073zM262 1499h119q15 -135 190 -135q82 0 131 35.5t56 99.5h121q-12 -136 -91.5 -206t-220.5 -70q-181 0 -262 116
q-23 31 -32 65.5t-11 94.5z" />
    <glyph glyph-name="Uring" unicode="&#x16e;" horiz-adv-x="1478" 
d="M1130 1493h191v-1049q0 -224 -156.5 -357.5t-419.5 -133.5q-265 0 -418 131.5t-153 359.5v1049h191v-1049q0 -162 108 -245q110 -78 272 -78q180 0 282.5 86t102.5 237v1049zM748 1952q75 0 127.5 -52.5t52.5 -127.5q0 -73 -53 -126t-127 -53q-75 0 -128 53t-53 128
q0 73 53.5 125.5t127.5 52.5zM748 1862q-37 0 -64 -26.5t-27 -63.5q0 -35 27 -62t64 -27q36 0 63 26.5t27 62.5q0 38 -26 64t-64 26z" />
    <glyph glyph-name="uring" unicode="&#x16f;" 
d="M987 0h-153v150q-75 -106 -158 -151.5t-201 -45.5q-157 0 -249.5 79.5t-92.5 213.5v827h170v-760q0 -97 60 -154t161 -57q133 0 213 99t80 264v608h170v-1073zM561 1544q75 0 127.5 -52.5t52.5 -127.5q0 -73 -53 -125.5t-127 -52.5q-75 0 -127.5 52.5t-52.5 127.5
q0 73 53 125.5t127 52.5zM561 1454q-37 0 -63.5 -26.5t-26.5 -63.5q0 -35 26.5 -61.5t63.5 -26.5t63.5 26.5t26.5 61.5q0 38 -26 64t-64 26z" />
    <glyph glyph-name="Uhungarumlaut" unicode="&#x170;" horiz-adv-x="1478" 
d="M1130 1493h191v-1049q0 -224 -156.5 -357.5t-419.5 -133.5q-265 0 -418 131.5t-153 359.5v1049h191v-1049q0 -162 108 -245q110 -78 272 -78q180 0 282.5 86t102.5 237v1049zM674 1923h231l-305 -307h-123zM1030 1923h232l-306 -307h-122z" />
    <glyph glyph-name="uhungarumlaut" unicode="&#x171;" 
d="M987 0h-153v150q-75 -106 -158 -151.5t-201 -45.5q-157 0 -249.5 79.5t-92.5 213.5v827h170v-760q0 -97 60 -154t161 -57q133 0 213 99t80 264v608h170v-1073zM498 1516h231l-305 -308h-123zM854 1516h231l-305 -308h-123z" />
    <glyph glyph-name="Uogonek" unicode="&#x172;" horiz-adv-x="1478" 
d="M1233 -307v-92q-103 -21 -154 -21q-64 0 -143 27q-129 49 -129 164q0 63 34.5 111t114.5 98q-122 -27 -206 -27q-267 0 -421.5 131.5t-154.5 359.5v1049h191v-1049q0 -162 108 -245q110 -78 272 -78q180 0 282.5 86t102.5 237v1049h191v-1049q-5 -137 -53.5 -231.5
t-177.5 -212.5q-134 -128 -134 -217q0 -54 38 -82.5t110 -28.5q74 0 129 21z" />
    <glyph glyph-name="uogonek" unicode="&#x173;" 
d="M987 1073v-1073q-70 -40 -113 -100.5t-43 -120.5q0 -49 37 -78t99 -29q44 0 100 21v-92q-19 -3 -27 -7q-49 -12 -79 -12q-128 0 -203.5 51.5t-75.5 139.5q0 66 47.5 120t149.5 107h-45v150q-75 -106 -158 -151.5t-201 -45.5q-157 0 -249.5 79.5t-92.5 213.5v827h170v-760
q0 -97 60 -154t161 -57q133 0 213 99t80 264v608h170z" />
    <glyph glyph-name="Wcircumflex" unicode="&#x174;" horiz-adv-x="1933" 
d="M1524 0h-209l-344 1227l-334 -1227h-209l-383 1493h213l281 -1212l331 1212h205l340 -1212l275 1212h213zM862 1925h195l196 -307h-129l-163 197l-162 -197h-133z" />
    <glyph glyph-name="wcircumflex" unicode="&#x175;" horiz-adv-x="1478" 
d="M1135 0h-195l-217 842l-207 -842h-192l-312 1073h189l219 -835l205 835h209l210 -835l213 835h193zM631 1518h194l197 -308h-129l-164 197l-162 -197h-133z" />
    <glyph glyph-name="Ycircumflex" unicode="&#x176;" horiz-adv-x="1366" 
d="M793 586v-586h-191v586l-575 907h235l438 -727l426 727h228zM608 1925h193l198 -307h-131l-163 197l-162 -197h-131z" />
    <glyph glyph-name="ycircumflex" unicode="&#x177;" horiz-adv-x="1024" 
d="M795 1073h184l-477 -1298q-25 -64 -51 -102.5t-66 -67.5q-70 -51 -160 -51q-63 0 -114 26v154q60 -13 90 -13q54 0 84.5 24t52.5 81l65 170l-362 1077h182l275 -835zM416 1518h192l199 -308h-131l-164 197l-162 -197h-131z" />
    <glyph glyph-name="Ydieresis" unicode="&#x178;" horiz-adv-x="1366" 
d="M793 586v-586h-191v586l-575 907h235l438 -727l426 727h228zM639 1872v-211h-213v211h213zM971 1872v-211h-213v211h213z" />
    <glyph glyph-name="Zacute" unicode="&#x179;" horiz-adv-x="1251" 
d="M1190 1493v-172l-893 -1153h897v-168h-1137v168l897 1157h-839v168h1075zM711 1923h231l-305 -303h-123z" />
    <glyph glyph-name="zacute" unicode="&#x17a;" horiz-adv-x="1024" 
d="M907 1073v-151l-637 -772h666v-150h-873v154l642 770h-599v149h801zM571 1516h230l-305 -304h-123z" />
    <glyph glyph-name="Zdotaccent" unicode="&#x17b;" horiz-adv-x="1251" 
d="M1190 1493v-172l-893 -1153h897v-168h-1137v168l897 1157h-839v168h1075zM760 1874v-213h-213v213h213z" />
    <glyph glyph-name="zdotaccent" unicode="&#x17c;" horiz-adv-x="1024" 
d="M907 1073v-151l-637 -772h666v-150h-873v154l642 770h-599v149h801zM621 1466v-213h-213v213h213z" />
    <glyph glyph-name="Zcaron" unicode="&#x17d;" horiz-adv-x="1251" 
d="M1190 1493v-172l-893 -1153h897v-168h-1137v168l897 1157h-839v168h1075zM750 1618h-193l-199 307h131l164 -196l162 196h131z" />
    <glyph glyph-name="zcaron" unicode="&#x17e;" horiz-adv-x="1024" 
d="M907 1073v-151l-637 -772h666v-150h-873v154l642 770h-599v149h801zM610 1210h-192l-199 308h131l164 -197l162 197h131z" />
    <glyph glyph-name="longs" unicode="&#x17f;" horiz-adv-x="454" 
d="M293 0h-170v934h-143v139h143v182q0 115 66.5 179.5t185.5 64.5q47 0 96 -10v-141l-61 2q-117 0 -117 -109v-1241z" />
    <glyph glyph-name="florin" unicode="&#x192;" 
d="M956 946v-143h-258l-153 -813q-40 -211 -133 -307q-53 -54 -127 -85.5t-150 -31.5q-73 0 -112 20l34 172q49 -32 103 -32q79 0 127 56t71 175l160 846h-231v143h256l45 213q33 165 125 254q50 46 112 72t123 26q76 0 162 -38l-61 -162q-65 37 -107 37q-144 0 -192 -258
l-25 -144h231z" />
    <glyph glyph-name="Aringacute" unicode="&#x1fa;" horiz-adv-x="1366" 
d="M971 449h-576l-157 -449h-203l532 1493h246l524 -1493h-213zM918 608l-230 680l-246 -680h476zM684 1952q75 0 127.5 -52.5t52.5 -127.5q0 -73 -53 -126t-127 -53q-75 0 -127.5 53t-52.5 128q0 73 53 125.5t127 52.5zM684 1862q-37 0 -63.5 -26.5t-26.5 -63.5
q0 -36 27 -62.5t63 -26.5t63 26.5t27 62.5q0 38 -26 64t-64 26zM569 2202h232l-305 -304h-123z" />
    <glyph glyph-name="aringacute" unicode="&#x1fb;" 
d="M1096 100v-129q-73 -18 -117 -18q-83 0 -125 37.5t-51 120.5q-91 -83 -177.5 -120.5t-187.5 -37.5q-163 0 -257.5 85.5t-94.5 231.5q0 207 188 287q51 21 108.5 32t235.5 34q104 13 140.5 37.5t38.5 80.5v45q0 77 -62 118.5t-178 41.5q-120 0 -180.5 -46t-71.5 -144h-172
q3 79 20 130.5t54 92.5q116 125 356 125q198 0 301 -75t103 -218v-631q0 -40 24 -62t68 -22q19 0 37 4zM797 338v192q-42 -20 -89 -30t-186 -29q-138 -20 -198 -66t-60 -131q0 -82 55.5 -127t155.5 -45q146 0 254 97q38 35 53 65.5t15 73.5zM571 1544q75 0 128 -52.5
t53 -127.5q0 -73 -53.5 -125.5t-127.5 -52.5q-75 0 -127.5 52.5t-52.5 127.5q0 73 53 125.5t127 52.5zM571 1454q-37 0 -63.5 -26.5t-26.5 -63.5q0 -35 26.5 -61.5t63.5 -26.5t64 26.5t27 61.5q0 38 -26.5 64t-64.5 26zM485 1845h230l-305 -303h-123z" />
    <glyph glyph-name="AEacute" unicode="&#x1fc;" horiz-adv-x="2048" 
d="M958 438h-550l-175 -438h-210l612 1493h1274v-168h-760v-477h721v-168h-721v-512h797v-168h-988v438zM958 606v719h-204l-283 -719h487zM1253 1923h230l-305 -303h-123z" />
    <glyph glyph-name="aeacute" unicode="&#x1fd;" horiz-adv-x="1820" 
d="M1538 326h172q-34 -175 -155 -274t-302 -99q-118 0 -214 45t-150 125q-21 34 -33 55q-115 -120 -218.5 -172.5t-223.5 -52.5q-157 0 -250.5 86t-93.5 231q0 207 188 287q104 44 344 64q107 11 142 34t36 86v45q0 78 -61.5 119t-179.5 41q-119 0 -179.5 -46t-70.5 -144
h-172q3 80 19.5 131t53.5 92q54 60 146 92.5t207 32.5q264 0 358 -168q55 79 149 123.5t205 44.5q149 0 264.5 -76t168.5 -207q43 -111 43 -342h-791q2 -81 14.5 -132.5t42.5 -96.5q43 -67 109.5 -103t148.5 -36q208 0 283 215zM780 322v206q-42 -19 -89 -28.5t-185 -30.5
q-138 -20 -198 -65t-60 -130q0 -80 55 -126t150 -46q123 0 227 78q46 35 73 74t27 68zM944 618h602q0 146 -82 237t-213 91q-129 0 -213 -89.5t-94 -238.5zM954 1516h232l-305 -304h-123z" />
    <glyph glyph-name="Oslashacute" unicode="&#x1fe;" horiz-adv-x="1593" 
d="M61 39l166 182q-155 213 -155 516q0 231 90 408.5t254 275t377 97.5q281 0 471 -166l178 194l82 -73l-183 -199q83 -104 127.5 -243.5t44.5 -297.5q0 -231 -90 -408.5t-253.5 -274.5t-376.5 -97q-295 0 -494 184l-158 -172zM356 360l787 859q-146 131 -350 131
q-238 0 -384.5 -169t-146.5 -444q0 -214 94 -377zM1214 1135l-792 -863q151 -151 371 -151q238 0 384 168.5t146 443.5q0 234 -109 402zM803 1923h229l-305 -303h-123z" />
    <glyph glyph-name="oslashacute" unicode="&#x1ff;" horiz-adv-x="1251" 
d="M1083 1047l-129 -146q90 -150 90 -373q0 -270 -128 -422.5t-355 -152.5q-210 0 -334 127l-125 -141l-65 57l135 151q-98 144 -98 381q0 272 128 424t357 152q207 0 340 -133l119 133zM829 760l-487 -551q88 -98 217 -98q143 0 225 111t82 306q0 134 -37 232zM295 289
l489 551q-83 106 -225 106q-143 0 -225 -111.5t-82 -306.5q0 -135 43 -239zM590 1544h231l-305 -303h-123z" />
    <glyph glyph-name="Scommaaccent" unicode="&#x218;" horiz-adv-x="1366" 
d="M1221 1055h-181q-1 147 -97 225t-275 78q-151 0 -242.5 -69t-91.5 -183q0 -86 55 -135t191 -86l374 -101q152 -41 235 -138.5t83 -235.5q0 -97 -44.5 -189.5t-119.5 -152.5q-149 -115 -420 -115q-348 0 -502 213q-45 62 -66 134.5t-22 174.5h181q-3 -133 77 -229
q105 -125 344 -125q189 0 275 63q48 34 77 90.5t29 116.5q0 88 -66 146.5t-208 95.5l-371 98q-293 76 -293 348q0 203 142.5 321t388.5 118q189 0 317.5 -67t190.5 -196q25 -53 32 -88.5t7 -111.5zM596 -123h205v-211q-1 -117 -57 -184t-148 -64v78q58 0 87 45.5t26 130.5
h-113v205z" />
    <glyph glyph-name="scommaaccent" unicode="&#x219;" horiz-adv-x="1024" 
d="M897 774h-180q-3 85 -57.5 128.5t-157.5 43.5q-105 0 -166.5 -43.5t-61.5 -118.5q0 -57 47 -92.5t152 -60.5l164 -39q160 -38 231.5 -108.5t71.5 -190.5q0 -155 -120 -247.5t-322 -92.5q-211 0 -316.5 90t-111.5 276h180q7 -56 17.5 -84.5t31.5 -52.5q68 -71 213 -71
q112 0 181 46.5t69 123.5q0 57 -38.5 91t-127.5 56l-160 39q-190 46 -265 114.5t-75 194.5q0 149 112.5 238.5t299.5 89.5q186 0 286.5 -86t102.5 -244zM403 -123h205v-211q-1 -117 -57 -184t-148 -64v78q58 0 87 45.5t26 130.5h-113v205z" />
    <glyph glyph-name="uni021A" unicode="&#x21a;" horiz-adv-x="1251" 
d="M725 1325v-1325h-190v1325h-492v168h1171v-168h-489zM532 -123h205v-211q-1 -117 -57 -184t-148 -64v78q58 0 87 45.5t26 130.5h-113v205z" />
    <glyph glyph-name="uni021B" unicode="&#x21b;" horiz-adv-x="569" 
d="M520 1073v-139h-176v-735q0 -57 19.5 -77t74.5 -20q44 0 82 9v-144q-80 -14 -139 -14q-100 0 -153.5 43.5t-53.5 126.5v811h-145v139h145v295h170v-295h176zM227 -123h205v-211q-1 -117 -57 -184t-148 -64v78q58 0 87 45.5t26 130.5h-113v205z" />
    <glyph glyph-name="circumflex" unicode="&#x2c6;" horiz-adv-x="681" 
d="M238 1518h194l197 -308h-129l-166 197l-162 -197h-131z" />
    <glyph glyph-name="caron" unicode="&#x2c7;" horiz-adv-x="681" 
d="M430 1210h-194l-197 308h129l166 -197l162 197h131z" />
    <glyph glyph-name="uni02C9" unicode="&#x2c9;" horiz-adv-x="681" 
d="M618 1436v-144h-561v144h561z" />
    <glyph glyph-name="breve" unicode="&#x2d8;" horiz-adv-x="681" 
d="M31 1499h121q15 -135 188 -135q83 0 131.5 35t54.5 100h121q-10 -136 -89 -206t-222 -70q-178 0 -262 116q-22 31 -32 66t-11 94z" />
    <glyph glyph-name="dotaccent" unicode="&#x2d9;" horiz-adv-x="681" 
d="M449 1466v-213h-213v213h213z" />
    <glyph glyph-name="ring" unicode="&#x2da;" horiz-adv-x="681" 
d="M342 1544q75 0 127.5 -52.5t52.5 -127.5q0 -73 -53 -125.5t-127 -52.5q-75 0 -127.5 52.5t-52.5 127.5q0 73 53 125.5t127 52.5zM342 1454q-37 0 -63.5 -26.5t-26.5 -63.5q0 -35 26.5 -61.5t63.5 -26.5t63.5 26.5t26.5 61.5q0 38 -26 64t-64 26z" />
    <glyph glyph-name="ogonek" unicode="&#x2db;" horiz-adv-x="681" 
d="M315 0h144q-113 -63 -153 -108t-40 -109q0 -54 38 -82.5t110 -28.5q71 0 129 21v-92q-103 -21 -156 -21q-65 0 -141 27q-129 49 -129 166q0 74 52 133.5t146 93.5z" />
    <glyph glyph-name="tilde" unicode="&#x2dc;" horiz-adv-x="681" 
d="M535 1468h118q-30 -213 -182 -213q-29 0 -56.5 8t-117.5 42q-66 26 -100 26q-49 0 -68 -74h-119q17 101 63 156t113 55q33 0 57 -6t87 -32q89 -35 129 -35q53 0 76 73z" />
    <glyph glyph-name="hungarumlaut" unicode="&#x2dd;" horiz-adv-x="681" 
d="M125 1516h231l-305 -308h-123zM481 1516h232l-305 -308h-123z" />
    <glyph glyph-name="tonos" unicode="&#x384;" horiz-adv-x="681" 
d="M258 1595h168v-186l-53 -213h-62l-53 213v186z" />
    <glyph glyph-name="dieresistonos" unicode="&#x385;" horiz-adv-x="681" 
d="M258 1759h168v-186l-53 -213h-62l-53 213v186zM614 1450v-211h-188v211h188zM258 1450v-211h-188v211h188z" />
    <glyph glyph-name="Alphatonos" unicode="&#x386;" horiz-adv-x="1366" 
d="M971 449h-576l-157 -449h-203l532 1493h246l524 -1493h-213zM918 608l-230 680l-246 -680h476zM113 1493h168v-186l-54 -213h-61l-53 213v186z" />
    <glyph glyph-name="uni0387" unicode="&#x387;" horiz-adv-x="569" 
d="M432 874v-256h-254v256h254z" />
    <glyph glyph-name="Epsilontonos" unicode="&#x388;" horiz-adv-x="1605" 
d="M524 680v-512h881v-168h-1071v1493h1034v-168h-844v-477h813v-168h-813zM55 1493h168v-186l-53 -213h-61l-54 213v186z" />
    <glyph glyph-name="Etatonos" unicode="&#x389;" horiz-adv-x="1716" 
d="M1278 680h-766v-680h-193v1493h191v-645h768v645h190v-1493h-190v680zM41 1493h168v-186l-53 -213h-62l-53 213v186z" />
    <glyph glyph-name="Iotatonos" unicode="&#x38a;" horiz-adv-x="786" 
d="M524 1493v-1493h-192v1493h192zM53 1493h168v-186l-53 -213h-62l-53 213v186z" />
    <glyph glyph-name="Omicrontonos" unicode="&#x38c;" horiz-adv-x="1585" 
d="M791 1518q328 0 525 -217t197 -578q0 -184 -68.5 -347t-189.5 -265q-187 -158 -462 -158q-160 0 -294.5 56.5t-228.5 158t-146 247.5t-52 320q0 231 90 409t253.5 276t375.5 98zM791 1350q-238 0 -383.5 -169t-145.5 -446t146 -445.5t385 -168.5q236 0 383 168t147 438
q0 284 -144.5 453.5t-387.5 169.5zM-49 1493h168v-186l-53 -213h-62l-53 213v186z" />
    <glyph glyph-name="Upsilontonos" unicode="&#x38e;" horiz-adv-x="1751" 
d="M1063 586v-586h-191v586l-575 907h235l439 -727l426 727h227zM68 1493h168v-186l-54 -213h-61l-53 213v186z" />
    <glyph glyph-name="Omegatonos" unicode="&#x38f;" horiz-adv-x="1540" 
d="M59 0v168h396q-94 56 -144.5 98.5t-93.5 102.5q-127 174 -127 440q0 326 182 508q95 97 224 149t272 52q164 0 307.5 -66.5t237.5 -185.5q135 -176 135 -457q0 -266 -127 -440q-43 -60 -93.5 -102.5t-144.5 -98.5h396v-168h-590v168q93 55 145.5 99.5t95.5 103.5
q127 172 127 436q0 250 -131.5 396.5t-355.5 146.5q-226 0 -357.5 -146t-131.5 -397q0 -264 127 -436q43 -59 95.5 -103.5t145.5 -99.5v-168h-590zM-45 1493h168v-186l-53 -213h-62l-53 213v186z" />
    <glyph glyph-name="iotadieresistonos" unicode="&#x390;" horiz-adv-x="454" 
d="M141 0v1073h172v-1073h-172zM143 1759h168v-186l-53 -213h-61l-54 213v186zM500 1450v-211h-189v211h189zM143 1450v-211h-188v211h188z" />
    <glyph glyph-name="Alpha" unicode="&#x391;" horiz-adv-x="1366" 
d="M971 449h-576l-157 -449h-203l532 1493h246l524 -1493h-213zM918 608l-230 680l-246 -680h476z" />
    <glyph glyph-name="Beta" unicode="&#x392;" horiz-adv-x="1366" 
d="M162 0v1493h606q208 0 324 -104q118 -106 118 -275q0 -231 -206 -326q143 -56 207.5 -141.5t64.5 -220.5q0 -180 -115 -301q-116 -125 -325 -125h-674zM352 850h369q80 0 129.5 12t87.5 41q82 63 82 184q0 122 -82 185q-38 29 -87.5 41t-129.5 12h-369v-475zM352 168h465
q126 0 197 68t71 188q0 121 -71 189.5t-197 68.5h-465v-514z" />
    <glyph glyph-name="Gamma" unicode="&#x393;" horiz-adv-x="1128" 
d="M160 1493h960v-168h-770v-1325h-190v1493z" />
    <glyph glyph-name="uni0394" unicode="&#x394;" horiz-adv-x="1368" 
d="M-25 0l603 1493h204l609 -1493h-1416zM682 1262l-434 -1094h866z" />
    <glyph glyph-name="Epsilon" unicode="&#x395;" horiz-adv-x="1366" 
d="M375 680v-512h880v-168h-1071v1493h1035v-168h-844v-477h813v-168h-813z" />
    <glyph glyph-name="Zeta" unicode="&#x396;" horiz-adv-x="1251" 
d="M1190 1493v-172l-893 -1153h897v-168h-1137v168l897 1157h-839v168h1075z" />
    <glyph glyph-name="Eta" unicode="&#x397;" horiz-adv-x="1478" 
d="M1128 680h-766v-680h-192v1493h190v-645h768v645h191v-1493h-191v680z" />
    <glyph glyph-name="Theta" unicode="&#x398;" horiz-adv-x="1593" 
d="M1104 811v-149h-612v149h612zM795 1518q328 0 525.5 -217t197.5 -578q0 -184 -68.5 -347t-189.5 -265q-187 -158 -463 -158q-160 0 -294.5 56.5t-228.5 158t-146 247.5t-52 320q0 231 90 409t253.5 276t375.5 98zM795 1350q-238 0 -383.5 -169t-145.5 -446t146 -445.5
t385 -168.5q236 0 383 168t147 438q0 284 -144.5 453.5t-387.5 169.5z" />
    <glyph glyph-name="Iota" unicode="&#x399;" horiz-adv-x="569" 
d="M397 1493v-1493h-192v1493h192z" />
    <glyph glyph-name="Kappa" unicode="&#x39a;" horiz-adv-x="1366" 
d="M352 522v-522h-190v1493h190v-756l744 756h245l-608 -608l615 -885h-226l-526 766z" />
    <glyph glyph-name="Lambda" unicode="&#x39b;" horiz-adv-x="1368" 
d="M811 1493l524 -1493h-213l-438 1288l-438 -1288h-213l524 1493h254z" />
    <glyph glyph-name="Mu" unicode="&#x39c;" horiz-adv-x="1705" 
d="M958 0h-200l-424 1251v-1251h-180v1493h264l442 -1300l434 1300h265v-1493h-181v1251z" />
    <glyph glyph-name="Nu" unicode="&#x39d;" horiz-adv-x="1478" 
d="M1323 1493v-1493h-215l-772 1210v-1210h-180v1493h206l781 -1221v1221h180z" />
    <glyph glyph-name="Xi" unicode="&#x39e;" horiz-adv-x="1331" 
d="M131 0v168h1071v-168h-1071zM195 680v168h940v-168h-940zM135 1325v168h1063v-168h-1063z" />
    <glyph glyph-name="Omicron" unicode="&#x39f;" horiz-adv-x="1593" 
d="M797 1518q328 0 525.5 -217t197.5 -578q0 -184 -68.5 -347t-189.5 -265q-187 -158 -463 -158q-160 0 -294.5 56.5t-228.5 158t-146 247.5t-52 320q0 231 90 409t253.5 276t375.5 98zM797 1350q-238 0 -383.5 -169t-145.5 -446t146 -445.5t385 -168.5q236 0 383 168
t147 438q0 284 -144.5 453.5t-387.5 169.5z" />
    <glyph glyph-name="Pi" unicode="&#x3a0;" horiz-adv-x="1478" 
d="M358 1325v-1325h-192v1493h1149v-1493h-193v1325h-764z" />
    <glyph glyph-name="Rho" unicode="&#x3a1;" horiz-adv-x="1366" 
d="M377 633v-633h-191v1493h617q221 0 341 -113.5t120 -324.5q0 -103 -31 -179t-98 -137q-118 -106 -289 -106h-469zM377 801h397q137 0 214 69.5t77 192.5t-77 192.5t-214 69.5h-397v-524z" />
    <glyph glyph-name="Sigma" unicode="&#x3a3;" horiz-adv-x="1265" 
d="M90 0v166l576 592l-574 567v168h1053v-168h-801l563 -567l-575 -590h848v-168h-1090z" />
    <glyph glyph-name="Tau" unicode="&#x3a4;" horiz-adv-x="1251" 
d="M725 1325v-1325h-190v1325h-492v168h1171v-168h-489z" />
    <glyph glyph-name="Upsilon" unicode="&#x3a5;" horiz-adv-x="1366" 
d="M793 586v-586h-191v586l-575 907h235l438 -727l426 727h228z" />
    <glyph glyph-name="Phi" unicode="&#x3a6;" horiz-adv-x="1634" 
d="M721 -20v186q-257 17 -410 174.5t-153 407.5q0 249 153 406.5t410 172.5v186h190v-186q267 -15 415.5 -167.5t148.5 -411.5t-149 -413t-415 -169v-186h-190zM721 332v829q-65 -4 -108.5 -17.5t-88.5 -41.5q-176 -112 -176 -357q0 -123 43 -207.5t137 -144.5
q44 -29 85.5 -42t107.5 -19zM911 1161v-829q66 6 107.5 19t85.5 42q94 60 137 144.5t43 207.5q0 245 -176 357q-45 28 -88.5 41.5t-108.5 17.5z" />
    <glyph glyph-name="Chi" unicode="&#x3a7;" horiz-adv-x="1366" 
d="M801 766l528 -766h-235l-408 623l-410 -623h-231l528 766l-495 727h231l383 -586l385 586h228z" />
    <glyph glyph-name="Psi" unicode="&#x3a8;" horiz-adv-x="1710" 
d="M948 1493v-1042q216 9 334 118q63 68 82 159t18 321v444h193v-444q0 -195 -18.5 -311.5t-63 -193t-129.5 -138.5q-166 -117 -416 -123v-283h-188v283q-292 6 -467 161q-93 90 -126.5 216.5t-33.5 388.5v444h193v-444q-1 -170 9 -260t37.5 -144.5t84.5 -99.5
q121 -88 303 -94v1042h188z" />
    <glyph glyph-name="uni03A9" unicode="&#x3a9;" horiz-adv-x="1531" 
d="M57 0v168h396q-94 56 -144.5 98.5t-93.5 102.5q-127 174 -127 440q0 326 182 508q95 97 224 149t272 52q164 0 307.5 -66.5t237.5 -185.5q135 -176 135 -457q0 -266 -127 -440q-43 -60 -93.5 -102.5t-144.5 -98.5h396v-168h-590v168q93 55 145.5 99.5t95.5 103.5
q127 172 127 436q0 250 -131.5 396.5t-355.5 146.5q-226 0 -357.5 -146t-131.5 -397q0 -264 127 -436q43 -59 95.5 -103.5t145.5 -99.5v-168h-590z" />
    <glyph glyph-name="Iotadieresis" unicode="&#x3aa;" horiz-adv-x="569" 
d="M397 1493v-1493h-192v1493h192zM225 1872v-211h-213v211h213zM557 1872v-211h-213v211h213z" />
    <glyph glyph-name="Upsilondieresis" unicode="&#x3ab;" horiz-adv-x="1366" 
d="M793 586v-586h-191v586l-575 907h235l438 -727l426 727h228zM625 1872v-211h-213v211h213zM956 1872v-211h-213v211h213z" />
    <glyph glyph-name="alphatonos" unicode="&#x3ac;" horiz-adv-x="1183" 
d="M1202 1073l-198 -518l213 -555h-189l-117 336q-85 -206 -185 -294.5t-249 -88.5q-203 0 -334 161.5t-131 411.5q0 249 135 412.5t340 163.5q186 0 304 -137q35 -40 59.5 -82t58.5 -119l107 309h186zM831 555q-83 221 -156 306t-179 85q-134 0 -220 -117.5t-86 -298.5
q0 -182 84.5 -299.5t214.5 -117.5q106 0 186 103t156 339zM414 1595h168v-186l-54 -213h-61l-53 213v186z" />
    <glyph glyph-name="epsilontonos" unicode="&#x3ad;" horiz-adv-x="913" 
d="M586 623v-144q-18 2 -43 2q-167 0 -245.5 -42.5t-78.5 -133.5q0 -88 69 -142t179 -54q116 0 183 55.5t102 179.5h170q-18 -82 -43 -134t-68 -104q-135 -153 -358 -153q-180 0 -296 96.5t-116 245.5q0 95 51 164.5t144 101.5q-81 42 -123.5 107.5t-42.5 144.5
q0 126 110.5 208.5t280.5 82.5q213 0 336 -141q38 -43 57 -87.5t29 -119.5h-166q-26 100 -85.5 146t-162.5 46q-97 0 -159 -45.5t-62 -116.5q0 -76 86 -124q74 -39 252 -39zM373 1595h168v-186l-54 -213h-61l-53 213v186z" />
    <glyph glyph-name="etatonos" unicode="&#x3ae;" 
d="M143 1073h158v-180q71 113 153.5 162t202.5 49q155 0 247.5 -79.5t92.5 -213.5v-1257h-172v1189q0 97 -59.5 154t-159.5 57q-118 0 -203 -88q-46 -50 -67 -114t-21 -160v-592h-172v1073zM526 1595h168v-186l-53 -213h-61l-54 213v186z" />
    <glyph glyph-name="iotatonos" unicode="&#x3af;" horiz-adv-x="454" 
d="M141 0v1073h172v-1073h-172zM143 1595h168v-186l-53 -213h-61l-54 213v186z" />
    <glyph glyph-name="upsilondieresistonos" unicode="&#x3b0;" horiz-adv-x="1120" 
d="M133 1073h172v-694q0 -90 16 -137t56 -76q74 -55 184 -55q111 0 182 55q41 31 56.5 76.5t15.5 136.5v694h172v-694q0 -125 -17.5 -189.5t-64.5 -115.5q-115 -121 -344 -121q-226 0 -340 117q-50 50 -69 116.5t-19 192.5v694zM477 1759h168v-186l-53 -213h-62l-53 213v186
zM834 1450v-211h-189v211h189zM477 1450v-211h-188v211h188z" />
    <glyph glyph-name="alpha" unicode="&#x3b1;" horiz-adv-x="1183" 
d="M1206 1073l-198 -518l213 -555h-189l-114 336q-56 -133 -111 -211q-58 -83 -141 -127.5t-177 -44.5q-187 0 -305 159.5t-118 413.5q0 252 122 414t312 162q85 0 162.5 -35.5t132.5 -101.5q57 -66 120 -201l107 309h184zM836 555q-82 217 -155 304t-173 87
q-119 0 -191.5 -115.5t-72.5 -304.5q0 -181 71.5 -297t184.5 -116q102 0 181.5 104.5t154.5 337.5z" />
    <glyph glyph-name="beta" unicode="&#x3b2;" horiz-adv-x="1177" 
d="M162 -446v1468q0 149 17 224.5t63 131.5q53 65 144 102.5t196 37.5q180 0 293.5 -105.5t113.5 -271.5q0 -202 -174 -297q131 -53 194.5 -152.5t63.5 -253.5q0 -220 -125 -352.5t-332 -132.5q-168 0 -284 94v-493h-170zM332 1032v-807q97 -114 258 -114q140 0 222.5 88.5
t82.5 238.5q0 146 -80.5 234t-212.5 88q-18 0 -80 -4v141q77 5 110.5 10.5t63.5 20.5q51 23 83 82t32 129q0 106 -65.5 167.5t-178.5 61.5q-59 0 -108.5 -20.5t-77.5 -57.5q-29 -36 -39 -90t-10 -168z" />
    <glyph glyph-name="gamma" unicode="&#x3b3;" horiz-adv-x="1024" 
d="M434 -446v479l-409 1040h192l303 -797l287 797h192l-393 -1040v-479h-172z" />
    <glyph glyph-name="delta" unicode="&#x3b4;" horiz-adv-x="1140" 
d="M528 1090l-327 258v145h755v-152h-514l303 -235q111 -86 138 -109.5t53 -54.5q121 -151 121 -414q0 -271 -128.5 -423t-357.5 -152t-357 152t-128 423q0 258 116.5 406.5t325.5 155.5zM571 946q-143 0 -225 -111.5t-82 -306.5t82 -306t225 -111q141 0 224.5 110.5
t83.5 300.5q0 199 -81.5 311.5t-226.5 112.5z" />
    <glyph glyph-name="epsilon" unicode="&#x3b5;" horiz-adv-x="913" 
d="M586 623v-144q-18 2 -43 2q-167 0 -245.5 -42.5t-78.5 -133.5q0 -88 69 -142t179 -54q116 0 183 55.5t102 179.5h170q-18 -82 -43 -134t-68 -104q-135 -153 -358 -153q-180 0 -296 96.5t-116 245.5q0 95 51 164.5t144 101.5q-81 42 -123.5 107.5t-42.5 144.5
q0 126 110.5 208.5t280.5 82.5q213 0 336 -141q38 -43 57 -87.5t29 -119.5h-166q-26 100 -85.5 146t-162.5 46q-97 0 -159 -45.5t-62 -116.5q0 -76 86 -124q74 -39 252 -39z" />
    <glyph glyph-name="zeta" unicode="&#x3b6;" horiz-adv-x="903" 
d="M174 1341v152h705v-152q-122 -69 -208.5 -139t-162.5 -162q-248 -299 -248 -585q0 -93 26.5 -159t75.5 -95q33 -19 64.5 -26t142.5 -17l95 -11q146 -15 205 -63.5t59 -151.5q0 -72 -16 -132t-85 -246h-174q72 190 86.5 238t14.5 99q0 57 -30.5 77.5t-127.5 29.5l-90 8
q-151 12 -230 51q-93 43 -143.5 142.5t-50.5 238.5q0 366 295 688q126 138 256 215h-459z" />
    <glyph glyph-name="eta" unicode="&#x3b7;" 
d="M143 1073h158v-180q71 113 153.5 162t202.5 49q155 0 247.5 -79.5t92.5 -213.5v-1257h-172v1189q0 97 -59.5 154t-159.5 57q-118 0 -203 -88q-46 -50 -67 -114t-21 -160v-592h-172v1073z" />
    <glyph glyph-name="theta" unicode="&#x3b8;" 
d="M569 1524q234 0 353 -176q66 -101 92 -235.5t26 -371.5q0 -223 -23.5 -356t-80.5 -231q-116 -201 -375 -201q-117 0 -209.5 52t-148.5 149q-57 100 -81 233t-24 358q0 234 26.5 368.5t92.5 234.5q59 85 149 130.5t203 45.5zM272 850h598q-6 158 -19.5 234t-47.5 147
q-69 135 -232 135q-165 0 -231 -135q-35 -70 -48.5 -145.5t-19.5 -235.5zM868 713h-598q1 -161 9.5 -249t27.5 -149q69 -206 262 -206q103 0 172.5 60.5t98.5 178.5q25 104 28 365z" />
    <glyph glyph-name="iota" unicode="&#x3b9;" horiz-adv-x="454" 
d="M141 0v1073h172v-1073h-172z" />
    <glyph glyph-name="kappa" unicode="&#x3ba;" horiz-adv-x="1024" 
d="M289 621l452 452h224l-377 -373l438 -700h-211l-356 573l-170 -165v-408h-172v1073h172v-452z" />
    <glyph glyph-name="lambda" unicode="&#x3bb;" horiz-adv-x="1024" 
d="M45 0l371 1042l-168 451h186l549 -1493h-188l-289 801l-277 -801h-184z" />
    <glyph glyph-name="uni03BC" unicode="&#x3bc;" horiz-adv-x="1179" 
d="M846 1073h172v-1073h-154v150q-74 -105 -155 -151t-193 -46q-102 0 -182 39v-438h-170v1519h172v-760q0 -97 59.5 -154t159.5 -57q59 0 115 26.5t96 72.5q44 51 62 117t18 176v579z" />
    <glyph glyph-name="nu" unicode="&#x3bd;" horiz-adv-x="1024" 
d="M588 0h-187l-376 1073h192l287 -846l303 846h192z" />
    <glyph glyph-name="xi" unicode="&#x3be;" horiz-adv-x="917" 
d="M96 1341v152h760v-152h-182q-154 0 -228 -43q-52 -31 -84 -86.5t-32 -115.5q0 -115 96.5 -176.5t278.5 -61.5h98v-151h-105q-187 0 -292 -43q-75 -31 -119.5 -99t-44.5 -151q0 -63 26.5 -119t69.5 -84q34 -22 77.5 -32t141.5 -19l117 -10q150 -13 210 -62.5t60 -155.5
q0 -68 -21 -148.5t-77 -229.5h-176q58 145 79 216t21 121q0 59 -34.5 79.5t-147.5 27.5l-119 8q-93 6 -152 23.5t-106 52.5q-71 51 -110.5 137t-39.5 189q0 147 76.5 237.5t241.5 140.5q-50 15 -78.5 30t-58.5 42q-44 41 -69.5 99.5t-25.5 119.5q0 169 164 264h-215z" />
    <glyph glyph-name="omicron" unicode="&#x3bf;" 
d="M567 1104q233 0 360.5 -152t127.5 -432q0 -264 -129.5 -415.5t-356.5 -151.5q-229 0 -357 152t-128 423q0 270 128 423t355 153zM569 946q-143 0 -225 -111.5t-82 -306.5t82 -306t225 -111q141 0 224.5 110.5t83.5 300.5q0 199 -81.5 311.5t-226.5 112.5z" />
    <glyph glyph-name="pi" unicode="&#x3c0;" horiz-adv-x="1413" 
d="M1276 1073v-151h-154v-922h-172v922h-489v-922h-172v922h-154v151h1141z" />
    <glyph glyph-name="rho" unicode="&#x3c1;" horiz-adv-x="1165" 
d="M121 -446v944q0 169 24 262t88 172q66 83 162.5 127.5t210.5 44.5q218 0 346.5 -156.5t128.5 -423.5q0 -260 -126 -415.5t-337 -155.5q-102 0 -179.5 38.5t-145.5 121.5v-559h-172zM600 946q-141 0 -224 -113t-83 -305t81.5 -303.5t221.5 -111.5q138 0 222.5 111.5
t84.5 295.5q0 196 -81.5 311t-221.5 115z" />
    <glyph glyph-name="uni03C2" unicode="&#x3c2;" horiz-adv-x="987" 
d="M858 -446h-176q98 258 98 315q0 34 -23 56.5t-77 41.5l-231 78q-178 61 -259 152q-63 67 -100 169t-37 207q0 107 41 214t109 178q66 66 156.5 102.5t191.5 36.5q108 0 201 -41.5t155 -116.5q42 -53 61.5 -105.5t26.5 -135.5h-180q-6 51 -16.5 81t-32.5 58
q-35 47 -93 74.5t-124 27.5q-137 0 -227.5 -103.5t-90.5 -260.5q0 -85 30.5 -162.5t84.5 -126.5q34 -32 83.5 -57t152.5 -62l92 -33q130 -44 162 -59t69 -49q53 -50 53 -127q0 -88 -100 -352z" />
    <glyph glyph-name="sigma" unicode="&#x3c3;" horiz-adv-x="1263" 
d="M1192 1073v-151h-236q74 -80 106 -173.5t32 -228.5q0 -264 -129.5 -415.5t-356.5 -151.5q-229 0 -357 152t-128 423q0 266 129.5 421t351.5 155q96 0 215 -31h373zM608 946q-143 0 -225 -111.5t-82 -306.5t82 -306t225 -111t225 110.5t82 302.5q0 200 -80.5 311
t-226.5 111z" />
    <glyph glyph-name="tau" unicode="&#x3c4;" horiz-adv-x="808" 
d="M317 0v922h-354v151h883v-151h-357v-922h-172z" />
    <glyph glyph-name="upsilon" unicode="&#x3c5;" horiz-adv-x="1120" 
d="M133 1073h172v-694q0 -90 16 -137t56 -76q74 -55 184 -55q111 0 182 55q41 31 56.5 76.5t15.5 136.5v694h172v-694q0 -125 -17.5 -189.5t-64.5 -115.5q-115 -121 -344 -121q-226 0 -340 117q-50 50 -69 116.5t-19 192.5v694z" />
    <glyph glyph-name="phi" unicode="&#x3c6;" horiz-adv-x="1327" 
d="M569 -446v401q-108 10 -175.5 33.5t-129.5 70.5q-97 75 -150 202t-53 284q0 210 117 358q51 65 103 102t143 74v-170q-45 -25 -69 -47.5t-44 -60.5q-59 -109 -59 -266q0 -110 30.5 -202.5t84.5 -144.5q37 -37 82 -54t120 -25v993q33 2 66 2q178 0 301 -57
q144 -63 226.5 -203.5t82.5 -321.5q0 -145 -55 -266t-156 -197q-63 -49 -128 -72t-165 -32v-401h-172zM741 948v-839q75 7 122 28t85 64q107 122 107 344q0 183 -82.5 288.5t-231.5 114.5z" />
    <glyph glyph-name="chi" unicode="&#x3c7;" horiz-adv-x="1075" 
d="M535 532l258 541h188l-352 -725l387 -794h-195l-291 600l-286 -600h-185l379 784l-360 735h196z" />
    <glyph glyph-name="psi" unicode="&#x3c8;" horiz-adv-x="1460" 
d="M834 1073v-954q169 14 239 97.5t64 266.5v590h172v-596q12 -241 -101 -364t-374 -152v-407h-172v407q-261 29 -374.5 152t-101.5 364v596h172v-590q-6 -183 64.5 -266.5t239.5 -97.5v954h172z" />
    <glyph glyph-name="omega" unicode="&#x3c9;" horiz-adv-x="1599" 
d="M713 813h172v-410q0 -133 20 -192q17 -50 54 -77.5t88 -27.5q88 0 140 98.5t52 262.5q0 352 -242 606h201q219 -239 219 -598q0 -238 -96.5 -380t-257.5 -142q-91 0 -153 42.5t-111 139.5q-57 -102 -116.5 -143t-152.5 -41q-160 0 -255 142.5t-95 381.5q0 356 219 598
h201q-123 -131 -182.5 -279.5t-59.5 -328.5q0 -166 51.5 -263.5t139.5 -97.5q50 0 88 28t55 79q21 62 21 192v410z" />
    <glyph glyph-name="iotadieresis" unicode="&#x3ca;" horiz-adv-x="454" 
d="M141 0v1073h172v-1073h-172zM160 1464v-211h-213v211h213zM492 1464v-211h-213v211h213z" />
    <glyph glyph-name="upsilondieresis" unicode="&#x3cb;" horiz-adv-x="1120" 
d="M133 1073h172v-694q0 -90 16 -137t56 -76q74 -55 184 -55q111 0 182 55q41 31 56.5 76.5t15.5 136.5v694h172v-694q0 -125 -17.5 -189.5t-64.5 -115.5q-115 -121 -344 -121q-226 0 -340 117q-50 50 -69 116.5t-19 192.5v694zM502 1464v-211h-213v211h213zM834 1464v-211
h-213v211h213z" />
    <glyph glyph-name="omicrontonos" unicode="&#x3cc;" 
d="M567 1104q233 0 360.5 -152t127.5 -432q0 -264 -129.5 -415.5t-356.5 -151.5q-229 0 -357 152t-128 423q0 270 128 423t355 153zM569 946q-143 0 -225 -111.5t-82 -306.5t82 -306t225 -111q141 0 224.5 110.5t83.5 300.5q0 199 -81.5 311.5t-226.5 112.5zM485 1595h168
v-186l-53 -213h-61l-54 213v186z" />
    <glyph glyph-name="upsilontonos" unicode="&#x3cd;" horiz-adv-x="1120" 
d="M133 1073h172v-694q0 -90 16 -137t56 -76q74 -55 184 -55q111 0 182 55q41 31 56.5 76.5t15.5 136.5v694h172v-694q0 -125 -17.5 -189.5t-64.5 -115.5q-115 -121 -344 -121q-226 0 -340 117q-50 50 -69 116.5t-19 192.5v694zM477 1595h168v-186l-53 -213h-62l-53 213v186
z" />
    <glyph glyph-name="omegatonos" unicode="&#x3ce;" horiz-adv-x="1599" 
d="M713 813h172v-410q0 -133 20 -192q17 -50 54 -77.5t88 -27.5q88 0 140 98.5t52 262.5q0 352 -242 606h201q219 -239 219 -598q0 -238 -96.5 -380t-257.5 -142q-91 0 -153 42.5t-111 139.5q-57 -102 -116.5 -143t-152.5 -41q-160 0 -255 142.5t-95 381.5q0 356 219 598
h201q-123 -131 -182.5 -279.5t-59.5 -328.5q0 -166 51.5 -263.5t139.5 -97.5q50 0 88 28t55 79q21 62 21 192v410zM715 1595h168v-186l-54 -213h-61l-53 213v186z" />
    <glyph glyph-name="theta1" unicode="&#x3d1;" horiz-adv-x="1120" 
d="M8 602h240q5 -140 11.5 -200t23.5 -107q63 -189 245 -189q107 0 177.5 67t99.5 196q19 96 22 317h-30q-286 0 -462.5 131.5t-176.5 343.5q0 160 101 261.5t261 101.5q136 0 243 -72t167 -203q32 -68 46 -161.5t19 -258.5q33 2 92 7v-142q-37 -3 -92 -6q0 -163 -14.5 -269
t-46.5 -188q-113 -280 -410 -280q-200 0 -310.5 132t-119.5 382h-86v137zM827 827v62q0 138 -23.5 230t-76.5 157q-35 46 -90.5 72t-116.5 26q-88 0 -143 -59.5t-55 -153.5q0 -154 136.5 -244t368.5 -90z" />
    <glyph glyph-name="phi1" unicode="&#x3d5;" horiz-adv-x="1146" 
d="M487 -446v401q-82 6 -136 23.5t-107 54.5q-104 72 -160.5 201t-56.5 294q0 166 56.5 295t160.5 203q53 37 107 54.5t136 23.5v252h168v-252q84 -6 138.5 -23.5t107.5 -54.5q106 -74 163.5 -203t57.5 -295q0 -164 -57.5 -293.5t-163.5 -201.5q-53 -37 -107.5 -54.5
t-138.5 -23.5v-401h-168zM487 109v841q-136 -15 -209 -123.5t-73 -294.5q0 -192 72 -300t210 -123zM655 950v-841q138 15 212.5 123.5t74.5 295.5q0 189 -74.5 298t-212.5 124z" />
    <glyph glyph-name="omega1" unicode="&#x3d6;" horiz-adv-x="1599" 
d="M340 934h-199v139h547q355 0 543 -155.5t188 -450.5q0 -136 -48 -248.5t-133 -177t-189 -64.5q-78 0 -145.5 42t-110.5 118q-46 -77 -112.5 -118.5t-145.5 -41.5q-57 0 -114.5 24t-101.5 65q-157 142 -157 409q0 303 178 459zM641 934h-76q-122 -89 -173.5 -194.5
t-51.5 -264.5q0 -157 50 -248.5t136 -91.5q89 0 135 87t46 255v144h172v-144q0 -344 180 -344q83 0 132.5 90t49.5 238q0 139 -58 245.5t-165 165.5q-65 34 -150.5 48t-226.5 14z" />
    <glyph glyph-name="uni0400" unicode="&#x400;" horiz-adv-x="1366" 
d="M375 680v-512h880v-168h-1071v1493h1035v-168h-844v-477h813v-168h-813zM678 1923l196 -303h-122l-306 303h232z" />
    <glyph glyph-name="afii10023" unicode="&#x401;" horiz-adv-x="1366" 
d="M367 680v-512h878v-168h-1071v1493h1034v-168h-841v-477h811v-168h-811zM635 1872v-211h-213v211h213zM967 1872v-211h-213v211h213z" />
    <glyph glyph-name="afii10051" unicode="&#x402;" horiz-adv-x="1771" 
d="M528 0v1325h-477v168h1016v-168h-346v-479q75 92 162 127t243 35q137 0 220.5 -27t148.5 -92q92 -92 92 -232v-340q3 -126 -90.5 -223t-216.5 -94h-299v168h297q56 3 86.5 38.5t30.5 96.5v346q0 100 -72.5 145.5t-232.5 45.5q-116 0 -184.5 -20.5t-119.5 -69.5
q-65 -62 -65 -154v-596h-193z" />
    <glyph glyph-name="afii10052" unicode="&#x403;" horiz-adv-x="1110" 
d="M176 1493h930v-168h-737v-1325h-193v1493zM616 1923h232l-305 -303h-123z" />
    <glyph glyph-name="afii10053" unicode="&#x404;" horiz-adv-x="1472" 
d="M868 662h-643q25 -254 164.5 -397.5t362.5 -143.5q106 0 201.5 38.5t164.5 108.5q49 51 79 107.5t58 150.5l189 -32q-37 -123 -75.5 -195t-104.5 -141q-199 -205 -512 -205q-160 0 -294.5 56.5t-228.5 158t-146 247.5t-52 320q0 232 89.5 410t253.5 275.5t378 97.5
q482 0 665 -455l-188 -37q-66 158 -188 241t-289 83q-146 0 -264.5 -68.5t-184.5 -191.5q-56 -101 -76 -259h641v-169z" />
    <glyph glyph-name="afii10054" unicode="&#x405;" horiz-adv-x="1366" 
d="M1221 1055h-181q-1 147 -97 225t-275 78q-151 0 -242.5 -69t-91.5 -183q0 -86 55 -135t191 -86l374 -101q153 -41 235.5 -138t82.5 -236q0 -97 -44.5 -189.5t-119.5 -152.5q-149 -115 -418 -115q-350 0 -504 213q-45 62 -66 134.5t-22 174.5h181q-3 -133 77 -229
q105 -125 344 -125q189 0 275 63q48 34 77 90.5t29 116.5q0 88 -66 146.5t-208 95.5l-371 98q-293 76 -293 348q0 203 142.5 321t388.5 118q257 0 402.5 -123t144.5 -340z" />
    <glyph glyph-name="afii10055" unicode="&#x406;" horiz-adv-x="569" 
d="M381 1493v-1493h-193v1493h193z" />
    <glyph glyph-name="afii10056" unicode="&#x407;" horiz-adv-x="569" 
d="M381 1493v-1493h-193v1493h193zM225 1872v-211h-213v211h213zM557 1872v-211h-213v211h213z" />
    <glyph glyph-name="afii10057" unicode="&#x408;" horiz-adv-x="1024" 
d="M676 1493h192v-1120q0 -191 -112 -303q-117 -117 -314 -117q-188 0 -299.5 107t-111.5 288v131h192v-96q0 -68 12 -112.5t41 -80.5q61 -77 173 -77q57 0 104.5 24.5t75.5 67.5q26 38 36.5 91.5t10.5 145.5v1051z" />
    <glyph glyph-name="afii10058" unicode="&#x409;" horiz-adv-x="2164" 
d="M1049 1325h-555v-756q-4 -146 -30.5 -240.5t-82.5 -168.5q-67 -89 -136.5 -126t-160.5 -34h-33v168q125 9 189 111t61 286v928h940v-633h399q115 0 191 -21.5t139 -72.5q144 -115 144 -330q0 -209 -119.5 -322.5t-339.5 -113.5h-606v1325zM1241 692v-524h383
q139 0 218 69.5t79 192.5q0 124 -78.5 193t-218.5 69h-383z" />
    <glyph glyph-name="afii10059" unicode="&#x40a;" horiz-adv-x="2068" 
d="M905 692h-598v-692h-192v1493h190v-633h600v633h193v-633h448q115 0 191 -21.5t137 -72.5q145 -115 145 -336q0 -204 -120.5 -317t-339.5 -113h-654v692zM1098 692v-524h430q141 0 220 69.5t79 192.5q0 124 -79 193t-220 69h-430z" />
    <glyph glyph-name="afii10060" unicode="&#x40b;" horiz-adv-x="1748" 
d="M518 0v1325h-483v168h1108v-168h-432v-479q72 89 157 124.5t226 35.5q123 0 204.5 -28t141.5 -91q92 -96 92 -230v-657h-193v649q0 98 -69.5 143.5t-220.5 45.5q-155 0 -246.5 -66t-91.5 -176v-596h-193z" />
    <glyph glyph-name="afii10061" unicode="&#x40c;" horiz-adv-x="1193" 
d="M129 0v1493h193v-619h127l366 619h213l-420 -707l516 -786h-213l-460 707h-129v-707h-193zM641 1923h231l-305 -303h-123z" />
    <glyph glyph-name="uni040D" unicode="&#x40d;" horiz-adv-x="1472" 
d="M158 0v1493h192v-1044l772 876v168h193v-1493h-193v1051l-772 -881v-170h-192zM715 1923l196 -303h-123l-305 303h232z" />
    <glyph glyph-name="afii10062" unicode="&#x40e;" horiz-adv-x="1300" 
d="M291 0v168h115q74 3 107 30.5t69 120.5l-543 1174h229l408 -946l385 946h225l-567 -1305q-83 -188 -248 -188h-180zM342 1907h121q15 -135 188 -135q83 0 132 35.5t55 99.5h120q-10 -136 -89 -206.5t-222 -70.5q-177 0 -262 117q-23 31 -32 65.5t-11 94.5z" />
    <glyph glyph-name="afii10145" unicode="&#x40f;" horiz-adv-x="1472" 
d="M162 0v1493h192v-1325h766v1325h193v-1493h-482v-340h-192v340h-477z" />
    <glyph glyph-name="afii10017" unicode="&#x410;" horiz-adv-x="1366" 
d="M969 449h-576l-157 -449h-203l532 1493h246l524 -1493h-213zM915 608l-229 680l-246 -680h475z" />
    <glyph glyph-name="afii10018" unicode="&#x411;" horiz-adv-x="1343" 
d="M348 860h449q114 0 190 -21.5t139 -72.5q144 -116 144 -336q0 -204 -121 -317t-340 -113h-653v1493h979v-168h-787v-465zM348 692v-524h430q141 0 220 69.5t79 192.5q0 124 -79 193t-220 69h-430z" />
    <glyph glyph-name="afii10019" unicode="&#x412;" horiz-adv-x="1366" 
d="M166 0v1493h606q208 0 324 -104q118 -106 118 -275q0 -231 -206 -326q143 -56 207.5 -141.5t64.5 -220.5q0 -180 -115 -301q-116 -125 -325 -125h-674zM358 848h367q80 0 129.5 12t87.5 41q82 63 82 186q0 122 -82 185q-38 29 -87.5 41t-129.5 12h-367v-477zM358 168h463
q126 0 197.5 68t71.5 188q0 121 -71.5 188.5t-197.5 67.5h-463v-512z" />
    <glyph glyph-name="afii10020" unicode="&#x413;" horiz-adv-x="1110" 
d="M170 1493h930v-168h-738v-1325h-192v1493z" />
    <glyph glyph-name="afii10021" unicode="&#x414;" horiz-adv-x="1386" 
d="M1165 0h-952v-340h-193v508q177 17 273 172.5t90 413.5v739h860v-1325h115v-508h-193v340zM1051 168v1157h-476v-565q1 -214 -59.5 -368.5t-173.5 -223.5h709z" />
    <glyph glyph-name="afii10022" unicode="&#x415;" horiz-adv-x="1366" 
d="M367 680v-512h878v-168h-1071v1493h1034v-168h-841v-477h811v-168h-811z" />
    <glyph glyph-name="afii10024" unicode="&#x416;" horiz-adv-x="1890" 
d="M848 0v707h-199l-459 -707h-215l514 786l-423 707h215l368 -619h199v619h192v-619h199l369 619h211l-418 -707l514 -786h-209l-461 707h-205v-707h-192z" />
    <glyph glyph-name="afii10025" unicode="&#x417;" horiz-adv-x="1236" 
d="M115 459h192v-35q0 -138 85.5 -220.5t230.5 -82.5q141 0 220 76t79 211q0 159 -113 231q-40 26 -85.5 36.5t-117.5 10.5h-82v166h68q129 0 207 68t78 182q0 111 -70.5 179.5t-185.5 68.5q-119 0 -193 -70t-74 -184v-70h-192v35q0 206 125.5 331.5t330.5 125.5
q195 0 323 -114.5t128 -289.5q0 -144 -88 -250q-26 -32 -56 -50.5t-83 -35.5q129 -25 200.5 -118t71.5 -238q0 -93 -33.5 -182t-93.5 -152q-126 -135 -362 -135q-151 0 -264 57.5t-179 167.5q-36 61 -50.5 123t-16.5 158z" />
    <glyph glyph-name="afii10026" unicode="&#x418;" horiz-adv-x="1472" 
d="M158 0v1493h192v-1044l772 876v168h193v-1493h-193v1051l-772 -881v-170h-192z" />
    <glyph glyph-name="afii10027" unicode="&#x419;" horiz-adv-x="1472" 
d="M158 0v1493h192v-1044l770 876v168h193v-1493h-193v1051l-770 -881v-170h-192zM426 1907h121q15 -135 190 -135q82 0 130.5 35.5t54.5 99.5h120q-10 -136 -89 -206.5t-222 -70.5q-177 0 -262 117q-38 53 -43 160z" />
    <glyph glyph-name="afii10028" unicode="&#x41a;" horiz-adv-x="1193" 
d="M129 0v1493h193v-619h129l368 619h211l-418 -707l516 -786h-213l-460 707h-133v-707h-193z" />
    <glyph glyph-name="afii10029" unicode="&#x41b;" horiz-adv-x="1343" 
d="M1055 0v1325h-613v-756q-4 -146 -30 -240.5t-82 -168.5q-67 -89 -136.5 -126t-160.5 -34h-33v168q125 9 189 111t61 286v928h997v-1493h-192z" />
    <glyph glyph-name="afii10030" unicode="&#x41c;" horiz-adv-x="1705" 
d="M956 0h-200l-424 1251v-1251h-180v1493h264l442 -1300l434 1300h264v-1493h-180v1251z" />
    <glyph glyph-name="afii10031" unicode="&#x41d;" horiz-adv-x="1478" 
d="M1122 680h-764v-680h-192v1493h190v-645h766v645h193v-1493h-193v680z" />
    <glyph glyph-name="afii10032" unicode="&#x41e;" horiz-adv-x="1593" 
d="M795 1518q328 0 525.5 -217t197.5 -578q0 -184 -68.5 -347t-189.5 -265q-187 -158 -463 -158q-160 0 -294.5 56.5t-228.5 158t-146 247.5t-52 320q0 231 90 409t253.5 276t375.5 98zM795 1350q-238 0 -383.5 -169t-145.5 -446t146 -445.5t385 -168.5q236 0 383 168
t147 438q0 284 -144.5 453.5t-387.5 169.5z" />
    <glyph glyph-name="afii10033" unicode="&#x41f;" horiz-adv-x="1472" 
d="M354 1325v-1325h-192v1493h1149v-1493h-193v1325h-764z" />
    <glyph glyph-name="afii10034" unicode="&#x420;" horiz-adv-x="1366" 
d="M381 633v-633h-193v1493h617q221 0 341 -113.5t120 -324.5q0 -103 -31 -179t-98 -137q-118 -106 -289 -106h-467zM381 801h395q137 0 214 69.5t77 192.5t-77 192.5t-214 69.5h-395v-524z" />
    <glyph glyph-name="afii10035" unicode="&#x421;" horiz-adv-x="1478" 
d="M1194 526h203q0 -83 -14.5 -138.5t-53.5 -125.5q-85 -151 -229.5 -230t-333.5 -79q-262 0 -434 153q-117 103 -181.5 267.5t-64.5 359.5q0 355 191.5 570t506.5 215q167 0 300.5 -64t210 -178.5t79.5 -259.5h-203q-2 155 -104.5 244.5t-280.5 89.5q-239 0 -373 -163.5
t-134 -453.5q0 -284 134 -448t365 -164q185 0 299 111t117 294z" />
    <glyph glyph-name="afii10036" unicode="&#x422;" horiz-adv-x="1251" 
d="M723 1325v-1325h-193v1325h-489v168h1171v-168h-489z" />
    <glyph glyph-name="afii10037" unicode="&#x423;" horiz-adv-x="1300" 
d="M291 0v168h115q74 3 107 30.5t69 120.5l-543 1174h229l408 -946l385 946h225l-567 -1305q-83 -188 -248 -188h-180z" />
    <glyph glyph-name="afii10038" unicode="&#x424;" horiz-adv-x="1556" 
d="M682 -20v186q-286 17 -455.5 174.5t-169.5 407.5q0 249 169.5 406.5t455.5 172.5v186h192v-186q296 -15 460.5 -167.5t164.5 -411.5t-165 -413t-460 -169v-186h-192zM682 332v829q-77 -5 -126 -17.5t-101 -41.5q-205 -111 -205 -357q0 -123 50 -207.5t157 -144.5
q53 -29 102 -42t123 -19zM874 1161v-829q75 6 123.5 19t100.5 42q109 60 159 144.5t50 207.5q0 246 -205 357q-52 29 -101.5 41.5t-126.5 17.5z" />
    <glyph glyph-name="afii10039" unicode="&#x425;" horiz-adv-x="1366" 
d="M797 766l528 -766h-235l-408 623l-410 -623h-231l528 766l-495 727h231l383 -586l385 586h227z" />
    <glyph glyph-name="afii10040" unicode="&#x426;" horiz-adv-x="1515" 
d="M170 0v1493h192v-1325h766v1325h193v-1325h113v-508h-193v340h-1071z" />
    <glyph glyph-name="afii10041" unicode="&#x427;" horiz-adv-x="1366" 
d="M1038 0v567q-220 -57 -417 -57q-249 0 -387 99.5t-138 279.5v604h193v-594q0 -221 375 -221q160 0 374 57v758h193v-1493h-193z" />
    <glyph glyph-name="afii10042" unicode="&#x428;" horiz-adv-x="1878" 
d="M104 0v1493h193v-1325h545v1325h192v-1325h545v1325h193v-1493h-1668z" />
    <glyph glyph-name="afii10043" unicode="&#x429;" horiz-adv-x="1921" 
d="M109 0v1493h192v-1325h549v1325h192v-1325h570v1325h192v-1325h115v-508h-193v340h-1617z" />
    <glyph glyph-name="afii10044" unicode="&#x42a;" horiz-adv-x="1622" 
d="M692 1493v-633h395q115 0 191 -21.5t139 -72.5q144 -116 144 -336q0 -204 -121 -317t-340 -113h-600v1325h-561v168h753zM692 692v-524h377q141 0 220 69.5t79 192.5t-79 192.5t-220 69.5h-377z" />
    <glyph glyph-name="afii10045" unicode="&#x42b;" horiz-adv-x="1812" 
d="M367 860h448q115 0 191 -21.5t137 -72.5q145 -115 145 -336q0 -204 -121 -317t-340 -113h-653v1493h193v-633zM367 692v-524h430q141 0 220 69.5t79 192.5q0 124 -79 193t-220 69h-430zM1446 0v1493h192v-1493h-192z" />
    <glyph glyph-name="afii10046" unicode="&#x42c;" horiz-adv-x="1343" 
d="M352 860h449q115 0 190.5 -21.5t136.5 -72.5q146 -116 146 -336q0 -204 -121 -317t-340 -113h-653v1493h192v-633zM352 692v-524h430q141 0 220 69.5t79 192.5q0 124 -79 193t-220 69h-430z" />
    <glyph glyph-name="afii10047" unicode="&#x42d;" horiz-adv-x="1472" 
d="M1249 662h-643v169h641q-26 184 -100 299q-68 103 -180 161.5t-244 58.5q-167 0 -290 -83t-189 -241l-187 37q183 455 666 455q213 0 377 -97.5t254 -275.5t90 -410q0 -174 -52.5 -320t-146.5 -247.5t-228 -158t-294 -56.5q-315 0 -514 205q-65 69 -103 141.5t-75 194.5
l186 32q28 -95 58 -151t81 -107q69 -71 164.5 -109t202.5 -38q223 0 362 143.5t164 397.5z" />
    <glyph glyph-name="afii10048" unicode="&#x42e;" horiz-adv-x="2068" 
d="M336 848h311q38 314 220.5 492t465.5 178q293 0 471 -215t178 -568t-178 -567.5t-471 -214.5q-296 0 -482 196t-208 531h-307v-680h-193v1493h193v-645zM1331 1350q-223 0 -361.5 -170.5t-138.5 -444.5t138.5 -444t361.5 -170q207 0 334 166.5t127 439.5
q0 286 -124.5 454.5t-336.5 168.5z" />
    <glyph glyph-name="afii10049" unicode="&#x42f;" horiz-adv-x="1478" 
d="M1106 643h-490q-127 0 -186 -63.5t-59 -200.5q0 -39 2 -68v-65q0 -146 -43 -246h-221q51 51 64.5 109.5t16.5 238.5q0 126 17 196t59 113.5t125 79.5q-123 62 -176 144.5t-53 212.5q0 193 117 296t337 103h682v-1493h-192v643zM1106 811v514h-459q-150 0 -215 -57
q-78 -66 -78 -199q0 -134 70.5 -196t222.5 -62h459z" />
    <glyph glyph-name="afii10065" unicode="&#x430;" 
d="M1096 104v-133q-73 -18 -121 -18q-85 0 -128 36.5t-52 114.5q-91 -80 -175.5 -115.5t-185.5 -35.5q-162 0 -255 86.5t-93 236.5q0 209 188 289q49 22 104 32.5t240 33.5q103 15 139.5 39.5t37.5 81.5v32q0 78 -61.5 120t-178.5 42q-118 0 -178.5 -47t-71.5 -147h-172
q5 83 21.5 133.5t52.5 91.5q115 127 356 127q198 0 301 -75t103 -220v-629q0 -40 23.5 -62t64.5 -22q20 0 41 8zM795 336v192q-41 -18 -88 -28t-187 -31q-137 -20 -196.5 -65.5t-59.5 -129.5q0 -82 55.5 -127t155.5 -45q146 0 254 97q36 33 51 64t15 73z" />
    <glyph glyph-name="afii10066" unicode="&#x431;" horiz-adv-x="1173" 
d="M717 1606h176q0 -118 -18 -180.5t-68 -118.5q-51 -44 -87.5 -57.5t-176.5 -37.5q-213 -41 -240 -233q128 125 305 125q98 0 190 -43.5t154 -118.5q121 -151 121 -414q0 -271 -128 -423t-357 -152q-235 0 -363 162q-67 83 -95 187.5t-28 272.5q0 380 107 580
q46 86 117 136t180 73q120 25 162.5 57t48.5 103v82zM588 946q-143 0 -225 -111.5t-82 -306.5t82 -306t225 -111q141 0 224 110.5t83 300.5q0 200 -81 312t-226 112z" />
    <glyph glyph-name="afii10067" unicode="&#x432;" horiz-adv-x="1087" 
d="M119 0v1073h553q137 0 226 -77t89 -197q0 -134 -123 -224q92 -49 130 -109.5t38 -154.5q0 -142 -84 -226.5t-225 -84.5h-604zM291 152h381q83 0 132.5 45.5t49.5 121.5q0 78 -49.5 125.5t-132.5 47.5h-381v-340zM291 643h381q60 0 98.5 39t38.5 102q0 65 -36.5 101.5
t-100.5 36.5h-381v-279z" />
    <glyph glyph-name="afii10068" unicode="&#x433;" horiz-adv-x="747" 
d="M121 0v1073h649v-151h-477v-922h-172z" />
    <glyph glyph-name="afii10069" unicode="&#x434;" horiz-adv-x="1193" 
d="M33 -199v351q82 31 138 97t99 183q76 195 76 512v129h684v-921h88v-351h-178v199h-729v-199h-178zM858 152v770h-344v-72q-4 -246 -61.5 -424.5t-161.5 -273.5h567z" />
    <glyph glyph-name="afii10070" unicode="&#x435;" 
d="M1055 479h-791q2 -80 14.5 -132t43.5 -97q44 -67 112 -103t150 -36q105 0 178 55t108 160h162q-32 -175 -153.5 -274t-305.5 -99q-227 0 -357 151.5t-130 417.5q0 265 134 423.5t358 158.5q151 0 266 -75.5t168 -207.5q43 -105 43 -342zM268 618h602q0 145 -82.5 236.5
t-212.5 91.5q-129 0 -213 -89.5t-94 -238.5z" />
    <glyph glyph-name="afii10072" unicode="&#x436;" horiz-adv-x="1370" 
d="M600 0v510h-129l-303 -510h-201l342 586l-254 487h199l217 -411h129v411h172v-411h127l215 411h201l-256 -487l342 -586h-199l-303 510h-127v-510h-172z" />
    <glyph glyph-name="afii10073" unicode="&#x437;" horiz-adv-x="937" 
d="M88 336h178v-45q0 -88 51.5 -134t149.5 -46q94 0 148.5 48t54.5 132q0 83 -58 133.5t-153 50.5h-72v152h72q39 0 83.5 18t71.5 45q33 33 33 90q0 72 -49 119t-125 47q-79 0 -131.5 -50.5t-52.5 -127.5v-47h-178v47q0 49 22.5 111t54.5 102q104 123 287 123
q149 0 249.5 -88t100.5 -217q0 -155 -155 -240q178 -81 178 -262q0 -151 -107 -247.5t-276 -96.5q-173 0 -275 91.5t-102 246.5v45z" />
    <glyph glyph-name="afii10074" unicode="&#x438;" horiz-adv-x="1144" 
d="M166 0v1073h172v-719l471 629v90h172v-1073h-172v733l-471 -635v-98h-172z" />
    <glyph glyph-name="afii10075" unicode="&#x439;" horiz-adv-x="1144" 
d="M166 0v1073h172v-719l471 629v90h172v-1073h-172v733l-471 -635v-98h-172zM264 1499h121q15 -135 188 -135q83 0 131 35t56 100h121q-10 -136 -89.5 -206t-222.5 -70q-181 0 -262 116q-23 31 -32 65.5t-11 94.5z" />
    <glyph glyph-name="afii10076" unicode="&#x43a;" horiz-adv-x="897" 
d="M76 0v1073h172v-411h211l217 411h198l-253 -487l342 -586h-201l-303 510h-211v-510h-172z" />
    <glyph glyph-name="afii10077" unicode="&#x43b;" horiz-adv-x="1193" 
d="M854 0v922h-451v-478q3 -195 -90 -316t-254 -128v152q73 15 121 87t51 171v663h795v-1073h-172z" />
    <glyph glyph-name="afii10078" unicode="&#x43c;" horiz-adv-x="1409" 
d="M86 0v1073h260l356 -899l357 899h262v-1073h-172v922l-356 -922h-177l-358 922v-922h-172z" />
    <glyph glyph-name="afii10079" unicode="&#x43d;" horiz-adv-x="1130" 
d="M147 0v1073h172v-432h494v432h172v-1073h-172v489h-494v-489h-172z" />
    <glyph glyph-name="afii10080" unicode="&#x43e;" 
d="M567 1104q233 0 360.5 -152t127.5 -432q0 -264 -129.5 -415.5t-356.5 -151.5q-229 0 -357 152t-128 423q0 270 128 423t355 153zM569 946q-143 0 -225 -111.5t-82 -306.5t82 -306t225 -111q141 0 224.5 110.5t83.5 300.5q0 199 -81.5 311.5t-226.5 112.5z" />
    <glyph glyph-name="afii10081" unicode="&#x43f;" horiz-adv-x="1110" 
d="M145 0v1073h820v-1073h-172v922h-476v-922h-172z" />
    <glyph glyph-name="afii10082" unicode="&#x440;" 
d="M119 -446v1519h168v-151q119 182 338 182q211 0 332.5 -157t121.5 -429q0 -256 -126 -410.5t-335 -154.5q-105 0 -184 38.5t-147 121.5v-559h-168zM590 944q-136 0 -217.5 -113.5t-81.5 -302.5t81.5 -302t217.5 -113q139 0 225 113t86 296q0 192 -85 307t-226 115z" />
    <glyph glyph-name="afii10083" unicode="&#x441;" horiz-adv-x="1024" 
d="M967 713h-170q-15 112 -81.5 172.5t-174.5 60.5q-141 0 -221 -113.5t-80 -314.5q0 -190 79.5 -298.5t217.5 -108.5q219 0 260 258h170q-15 -197 -130 -306.5t-305 -109.5q-217 0 -344 152.5t-127 412.5q0 267 131 426.5t349 159.5q112 0 204 -42t148 -118q60 -82 74 -231
z" />
    <glyph glyph-name="afii10084" unicode="&#x442;" horiz-adv-x="937" 
d="M383 0v922h-313v151h796v-151h-311v-922h-172z" />
    <glyph glyph-name="afii10085" unicode="&#x443;" horiz-adv-x="1024" 
d="M799 1073h184l-479 -1298q-25 -64 -51 -102.5t-64 -67.5q-73 -51 -162 -51q-64 0 -112 22v158q50 -17 92 -17q53 0 83 24.5t52 84.5l66 174l-363 1073h182l277 -835z" />
    <glyph glyph-name="afii10086" unicode="&#x444;" horiz-adv-x="1685" 
d="M756 -446v401q-106 6 -176.5 23.5t-143.5 54.5q-136 67 -212.5 198.5t-76.5 296.5q0 166 76.5 297.5t212.5 200.5q71 36 141.5 53t178.5 25v252h172v-252q110 -8 181 -25t144 -53q138 -67 215.5 -199.5t77.5 -298.5q0 -165 -77.5 -296.5t-215.5 -198.5
q-75 -37 -146.5 -54.5t-178.5 -23.5v-401h-172zM756 109v841q-209 -17 -319.5 -125t-110.5 -297t110.5 -296.5t319.5 -122.5zM928 950v-841q215 17 327.5 124t112.5 295q0 189 -112.5 297t-327.5 125z" />
    <glyph glyph-name="afii10087" unicode="&#x445;" horiz-adv-x="1024" 
d="M608 551l365 -551h-197l-262 412l-276 -412h-185l369 551l-369 522h207l254 -389l262 389h197z" />
    <glyph glyph-name="afii10088" unicode="&#x446;" horiz-adv-x="1173" 
d="M178 0v1073h172v-921h449v921h172v-921h94v-478h-176v326h-711z" />
    <glyph glyph-name="afii10089" unicode="&#x447;" horiz-adv-x="1067" 
d="M737 0v410q-138 -60 -274 -60q-193 0 -287 105q-32 35 -45.5 77t-13.5 105v436h172v-397q0 -168 205 -168q119 0 243 41v524h172v-1073h-172z" />
    <glyph glyph-name="afii10090" unicode="&#x448;" horiz-adv-x="1642" 
d="M131 0v1073h174v-921h430v921h172v-921h430v921h172v-1073h-1378z" />
    <glyph glyph-name="afii10091" unicode="&#x449;" horiz-adv-x="1685" 
d="M143 0v1073h174v-921h431v921h172v-921h430v921h172v-921h88v-478h-172v326h-1295z" />
    <glyph glyph-name="afii10092" unicode="&#x44a;" horiz-adv-x="1280" 
d="M385 0v922h-430v151h602v-430h340q158 0 252 -88.5t94 -239.5q0 -144 -93.5 -229.5t-250.5 -85.5h-514zM557 152h336q82 0 127 44t45 126t-45 126t-127 44h-336v-340z" />
    <glyph glyph-name="afii10093" unicode="&#x44b;" horiz-adv-x="1472" 
d="M166 0v1073h172v-430h340q158 0 252 -88.5t94 -239.5q0 -144 -93.5 -229.5t-250.5 -85.5h-514zM338 152h336q82 0 127 44t45 126t-45 126t-127 44h-336v-340zM1137 0v1073h172v-1073h-172z" />
    <glyph glyph-name="afii10094" unicode="&#x44c;" horiz-adv-x="1067" 
d="M141 0v1073h172v-430h340q158 0 252 -88.5t94 -239.5q0 -144 -93.5 -229.5t-250.5 -85.5h-514zM313 152h336q82 0 127 44t45 126t-45 126t-127 44h-336v-340z" />
    <glyph glyph-name="afii10095" unicode="&#x44d;" horiz-adv-x="1044" 
d="M231 717l-176 37q46 168 164.5 259t292.5 91q223 0 355 -155.5t132 -418.5q0 -267 -130.5 -422t-356.5 -155q-189 0 -307.5 102t-161.5 303l176 45q28 -143 102 -217.5t191 -74.5q135 0 219 100.5t88 267.5h-381v152h377q-17 149 -95.5 232t-201.5 83
q-105 0 -180.5 -60.5t-106.5 -168.5z" />
    <glyph glyph-name="afii10096" unicode="&#x44e;" horiz-adv-x="1536" 
d="M276 641h248q29 223 153.5 343t326.5 120q229 0 357 -152t128 -424q0 -271 -128 -423t-357 -152q-222 0 -347 138.5t-137 397.5h-244v-489h-172v1073h172v-432zM1004 946q-143 0 -225.5 -111.5t-82.5 -306.5t82.5 -306t225.5 -111q141 0 224 110.5t83 300.5
q0 200 -81 312t-226 112z" />
    <glyph glyph-name="afii10097" unicode="&#x44f;" horiz-adv-x="1110" 
d="M780 0v430h-295q-64 -1 -104.5 -46.5t-42.5 -117.5v-114q-3 -114 -41 -152h-178q23 19 31 49.5t10 102.5v114q6 149 143 203q-112 44 -161.5 111t-49.5 174q0 140 97.5 229.5t250.5 89.5h512v-1073h-172zM780 582v340h-340q-77 0 -123.5 -46t-46.5 -122q0 -79 46 -125.5
t124 -46.5h340z" />
    <glyph glyph-name="uni0450" unicode="&#x450;" 
d="M1051 479h-791q2 -81 14.5 -132.5t42.5 -96.5q43 -67 109.5 -103t148.5 -36q209 0 281 215h172q-32 -175 -153.5 -274t-305.5 -99q-227 0 -357 151.5t-130 417.5t133.5 424t357.5 158q151 0 266.5 -75.5t168.5 -207.5q43 -111 43 -342zM264 618h602q0 145 -82.5 236.5
t-212.5 91.5q-129 0 -213 -89.5t-94 -238.5zM514 1516l199 -304h-123l-305 304h229z" />
    <glyph glyph-name="afii10071" unicode="&#x451;" 
d="M1057 479h-791q2 -80 14.5 -132t43.5 -97q44 -67 112 -103t150 -36q105 0 178 55t108 160h162q-32 -175 -153.5 -274t-305.5 -99q-227 0 -357 151.5t-130 417.5q0 265 134 423.5t358 158.5q151 0 266 -75.5t168 -207.5q43 -105 43 -342zM270 618h602q0 145 -82 236.5
t-212 91.5q-129 0 -213.5 -89.5t-94.5 -238.5zM510 1464v-211h-213v211h213zM842 1464v-211h-213v211h213z" />
    <glyph glyph-name="afii10099" unicode="&#x452;" 
d="M156 0v1198h-211v152h211v143h172v-143h237v-152h-237v-307q88 105 172.5 152t185.5 47q143 0 234.5 -100t91.5 -257v-629q-1 -155 -107 -261.5t-266 -114.5h-264v157h264q78 -2 139 64t62 155v629q0 86 -54 142.5t-137 56.5q-177 0 -321 -225v-707h-172z" />
    <glyph glyph-name="afii10100" unicode="&#x453;" horiz-adv-x="747" 
d="M131 0v1073h649v-151h-477v-922h-172zM483 1516h232l-305 -304h-123z" />
    <glyph glyph-name="afii10101" unicode="&#x454;" horiz-adv-x="1044" 
d="M989 754l-176 -37q-31 108 -106.5 168.5t-180.5 60.5q-124 0 -202 -82.5t-95 -232.5h377v-152h-383q6 -167 90 -267.5t219 -100.5q115 0 190 74.5t103 217.5l176 -45q-89 -405 -471 -405q-224 0 -354.5 155t-130.5 422q0 263 131.5 418.5t355.5 155.5q172 0 291.5 -91
t165.5 -259z" />
    <glyph glyph-name="afii10102" unicode="&#x455;" horiz-adv-x="1024" 
d="M897 774h-180q-3 85 -57.5 128.5t-157.5 43.5q-105 0 -166.5 -43.5t-61.5 -118.5q0 -57 47 -92.5t152 -60.5l164 -39q160 -38 231.5 -108.5t71.5 -190.5q0 -155 -120 -247.5t-322 -92.5q-211 0 -316.5 90t-111.5 276h180q7 -56 17.5 -84.5t31.5 -52.5q68 -71 213 -71
q112 0 181 46.5t69 123.5q0 57 -38.5 91t-127.5 56l-160 39q-190 46 -265 114.5t-75 194.5q0 149 112.5 238.5t299.5 89.5q186 0 287 -85t102 -245z" />
    <glyph glyph-name="afii10103" unicode="&#x456;" horiz-adv-x="454" 
d="M313 1073v-1073h-172v1073h172zM313 1493v-215h-172v215h172z" />
    <glyph glyph-name="afii10104" unicode="&#x457;" horiz-adv-x="569" 
d="M377 1073v-1073h-172v1073h172zM225 1464v-211h-213v211h213zM557 1464v-211h-213v211h213z" />
    <glyph glyph-name="afii10105" unicode="&#x458;" horiz-adv-x="454" 
d="M141 1073h172v-1296q-6 -123 -90.5 -176t-261.5 -47v159q16 -2 41 -2q79 0 109 31t30 111v1220zM313 1493v-215h-172v215h172z" />
    <glyph glyph-name="afii10106" unicode="&#x459;" horiz-adv-x="1855" 
d="M874 0v922h-471v-478q3 -195 -90 -316t-254 -128v152q73 15 121 87t51 171v663h816v-430h339q159 0 253 -89t94 -239q0 -144 -93.5 -229.5t-250.5 -85.5h-515zM1047 152h335q82 0 127 44t45 126t-45 126t-127 44h-335v-340z" />
    <glyph glyph-name="afii10107" unicode="&#x45a;" horiz-adv-x="1665" 
d="M106 0v1073h173v-432h493v432h172v-430h340q158 0 252 -88.5t94 -239.5q0 -144 -93.5 -229.5t-250.5 -85.5h-514v489h-493v-489h-173zM944 152h336q82 0 127 44t45 126q0 43 -17.5 81t-48.5 60q-39 29 -106 29h-336v-340z" />
    <glyph glyph-name="afii10108" unicode="&#x45b;" 
d="M156 0v1198h-211v152h211v143h172v-143h237v-152h-237v-307q86 104 171.5 151.5t186.5 47.5q143 0 234.5 -100t91.5 -257v-733h-172v733q0 86 -54 142.5t-137 56.5q-175 0 -321 -225v-707h-172z" />
    <glyph glyph-name="afii10109" unicode="&#x45c;" horiz-adv-x="897" 
d="M76 0v1073h172v-411h211l217 411h198l-253 -487l342 -586h-201l-303 510h-211v-510h-172zM500 1516h231l-305 -304h-123z" />
    <glyph glyph-name="uni045D" unicode="&#x45d;" horiz-adv-x="1144" 
d="M166 0v1073h172v-719l471 629v90h172v-1073h-172v733l-471 -635v-98h-172zM479 1516l197 -304h-123l-305 304h231z" />
    <glyph glyph-name="afii10110" unicode="&#x45e;" horiz-adv-x="1024" 
d="M799 1073h184l-479 -1298q-25 -64 -51 -102.5t-64 -67.5q-73 -51 -162 -51q-64 0 -112 22v158q50 -17 92 -17q53 0 83 24.5t52 84.5l66 174l-363 1073h182l277 -835zM203 1499h121q15 -135 188 -135q83 0 131.5 35t54.5 100h121q-10 -136 -89 -206t-222 -70
q-178 0 -262 116q-22 31 -32 66t-11 94z" />
    <glyph glyph-name="afii10193" unicode="&#x45f;" horiz-adv-x="1130" 
d="M170 0v1073h172v-921h449v921h172v-1073h-308v-328h-172v328h-313z" />
    <glyph glyph-name="uni0462" unicode="&#x462;" horiz-adv-x="1593" 
d="M385 1315v178h193v-178h387v-166h-387v-289h448q115 0 192 -21.5t138 -72.5q143 -119 143 -334q0 -206 -120.5 -319t-340.5 -113h-653v1149h-367v166h367zM578 692v-524h430q141 0 220 69.5t79 192.5t-79 192.5t-220 69.5h-430z" />
    <glyph glyph-name="uni0463" unicode="&#x463;" horiz-adv-x="1255" 
d="M256 934h-143v139h145v295h170v-295h176v-139h-176v-291h340q158 0 252 -88.5t94 -239.5q0 -144 -93.5 -229.5t-250.5 -85.5h-514v934zM428 152h336q81 0 126.5 44.5t45.5 122.5q0 83 -45 128t-127 45h-336v-340z" />
    <glyph glyph-name="uni0472" unicode="&#x472;" horiz-adv-x="1593" 
d="M805 1516q209 0 371 -97t252 -272.5t90 -401.5q0 -227 -89.5 -401.5t-253.5 -270.5t-378 -96q-159 0 -293.5 56t-228.5 155.5t-146.5 242.5t-52.5 312q0 232 89.5 407.5t255 270.5t384.5 95zM801 819l80 -53q50 -35 127 -35q112 0 317 76q-20 248 -163 394.5t-365 146.5
q-223 0 -364.5 -144t-164.5 -395q135 45 198.5 59.5t127.5 14.5q59 0 106.5 -15t100.5 -49zM1323 664q-6 -2 -23.5 -8.5t-29.5 -10.5q-121 -43 -186.5 -58.5t-122.5 -15.5q-52 0 -85 14t-126 74q-52 35 -98.5 49.5t-108.5 14.5t-119 -12t-154 -45q23 -190 103 -308
q69 -101 180 -157t244 -56q221 0 358 135.5t168 383.5z" />
    <glyph glyph-name="uni0473" unicode="&#x473;" 
d="M582 1096q221 0 347 -151t126 -415q0 -262 -127.5 -407.5t-356.5 -145.5q-230 0 -358.5 145.5t-128.5 405.5q0 270 130 419t368 149zM874 469l-59 -23q-110 -47 -158 -47q-43 0 -108 54q-68 55 -121 55q-57 0 -162 -45q7 -72 20 -114.5t40 -84.5q40 -61 104 -95t141 -34
q132 0 211.5 88t91.5 246zM844 598l28 12q-9 72 -21 112t-36 81q-38 64 -101.5 99.5t-140.5 35.5t-141 -35.5t-104 -99.5q-27 -42 -40 -84.5t-22 -116.5q136 62 201 62q34 0 63.5 -13.5t75.5 -48.5q60 -49 99 -49q20 0 40 6.5t99 38.5z" />
    <glyph glyph-name="uni0474" unicode="&#x474;" horiz-adv-x="1644" 
d="M1518 1487v-178q-49 24 -88 24q-53 0 -83.5 -27.5t-50.5 -93.5l-381 -1212h-206l-535 1493h205l438 -1264l303 1043q37 126 101 183.5t170 57.5q61 0 127 -26z" />
    <glyph glyph-name="uni0475" unicode="&#x475;" horiz-adv-x="1292" 
d="M1139 1073v-147q-30 12 -60 12q-46 0 -71 -26t-45 -95l-238 -817h-186l-377 1073h192l287 -870l156 649q31 126 87 180.5t156 54.5q42 0 99 -14z" />
    <glyph glyph-name="afii10050" unicode="&#x490;" horiz-adv-x="1001" 
d="M889 1493l196 303h232l-305 -303v-168h-705v-1325h-192v1493h774z" />
    <glyph glyph-name="afii10098" unicode="&#x491;" horiz-adv-x="841" 
d="M705 1073l196 303h232l-306 -303v-151h-477v-922h-172v1073h527z" />
    <glyph glyph-name="uni0492" unicode="&#x492;" horiz-adv-x="1101" 
d="M358 848h525v-168h-525v-680h-192v680h-94v168h94v645h930v-168h-738v-477z" />
    <glyph glyph-name="uni0493" unicode="&#x493;" horiz-adv-x="796" 
d="M315 662h312l-2 -152h-310v-510h-172v510h-71v152h71v411h650v-151h-478v-260z" />
    <glyph glyph-name="uni0496" unicode="&#x496;" horiz-adv-x="2091" 
d="M903 0v707h-227l-459 -707h-215l514 786l-424 707h215l369 -619h227v619h193v-619h227l369 619h213l-420 -707l405 -618h197v-467h-191v299h-106l-461 707h-233v-707h-193z" />
    <glyph glyph-name="uni0497" unicode="&#x497;" horiz-adv-x="1677" 
d="M719 0v510h-211l-303 -510h-201l342 586l-254 487h199l217 -411h211v411h172v-411h211l215 411h201l-254 -487l254 -432h157v-476h-172v322h-98l-303 510h-211v-510h-172z" />
    <glyph glyph-name="uni049A" unicode="&#x49a;" horiz-adv-x="1363" 
d="M164 0v1493h192v-619h148l366 619h213l-419 -707l405 -618h209v-508h-193v340h-118l-461 707h-150v-707h-192z" />
    <glyph glyph-name="uni049B" unicode="&#x49b;" horiz-adv-x="1103" 
d="M145 0v1073h172v-411h211l217 411h199l-254 -487l254 -434h158v-480h-172v328h-99l-303 510h-211v-510h-172z" />
    <glyph glyph-name="uni049C" unicode="&#x49c;" horiz-adv-x="1265" 
d="M463 874v377h123v-377l366 619h213l-420 -707l517 -786h-213l-459 707h-4v-375h-123v375h-107v-707h-192v1493h192v-619h107z" />
    <glyph glyph-name="uni049D" unicode="&#x49d;" horiz-adv-x="1034" 
d="M420 662v262h110v-262l215 411h199l-254 -487l342 -586h-201l-301 510v-262h-110v262h-103v-510h-172v1073h172v-411h103z" />
    <glyph glyph-name="uni04A2" unicode="&#x4a2;" horiz-adv-x="1478" 
d="M1122 680h-764v-680h-192v1493h190v-645h766v645h193v-1325h115v-508h-193v340h-115v680z" />
    <glyph glyph-name="uni04A3" unicode="&#x4a3;" horiz-adv-x="1126" 
d="M145 0v1073h172v-432h494v432h172v-921h70v-480h-172v328h-70v489h-494v-489h-172z" />
    <glyph glyph-name="uni04AE" unicode="&#x4ae;" horiz-adv-x="1380" 
d="M793 586v-586h-193v586l-573 907h235l438 -727l426 727h228z" />
    <glyph glyph-name="uni04AF" unicode="&#x4af;" horiz-adv-x="1024" 
d="M801 1073h182l-383 -1073v-446h-172v446l-383 1073h182l287 -835z" />
    <glyph glyph-name="uni04B0" unicode="&#x4b0;" horiz-adv-x="1380" 
d="M793 455h303v-172h-303v-283h-193v283h-317v172h317v131l-573 907h233l440 -727l426 727h228l-561 -907v-131z" />
    <glyph glyph-name="uni04B1" unicode="&#x4b1;" horiz-adv-x="1024" 
d="M600 -4h244v-117h-244v-325h-172v325h-248v117h248v4l-383 1073h182l287 -835l285 835h184l-383 -1073v-4z" />
    <glyph glyph-name="uni04B2" unicode="&#x4b2;" horiz-adv-x="1452" 
d="M797 766l411 -598h203v-508h-192v340h-129l-408 623l-410 -623h-231l528 766l-495 727h231l383 -586l385 586h227z" />
    <glyph glyph-name="uni04B3" unicode="&#x4b3;" horiz-adv-x="1079" 
d="M600 551l264 -399h170v-478h-172v326h-94l-262 412l-277 -412h-184l369 551l-369 522h207l254 -389l262 389h197z" />
    <glyph glyph-name="uni04B6" unicode="&#x4b6;" horiz-adv-x="1423" 
d="M1067 0v567q-220 -57 -418 -57q-249 0 -386.5 99.5t-137.5 279.5v604h192v-594q0 -221 375 -221q161 0 375 57v758h193v-1325h114v-508h-192v340h-115z" />
    <glyph glyph-name="uni04B7" unicode="&#x4b7;" horiz-adv-x="1040" 
d="M723 0v410q-138 -60 -274 -60q-193 0 -287 105q-32 35 -46 77t-14 105v436h172v-397q0 -168 205 -168q120 0 244 41v524h172v-921h70v-480h-172v328h-70z" />
    <glyph glyph-name="uni04B8" unicode="&#x4b8;" horiz-adv-x="1423" 
d="M754 514v-293h-123v289q-240 3 -372.5 102t-133.5 277v604h192v-594q-2 -101 76 -155.5t238 -63.5v461h123v-461q138 8 313 55v758h193v-1493h-193v567q-138 -38 -313 -53z" />
    <glyph glyph-name="uni04B9" unicode="&#x4b9;" horiz-adv-x="1040" 
d="M561 358v-192h-110v184q-163 1 -254.5 78.5t-85.5 208.5v436h172v-397q0 -75 43 -117.5t125 -48.5v250h110v-248q72 7 170 37v524h172v-1073h-172v408q-92 -38 -170 -50z" />
    <glyph glyph-name="uni04BA" unicode="&#x4ba;" horiz-adv-x="1423" 
d="M317 1493v-567q220 57 418 57q249 0 387 -99.5t138 -279.5v-604h-193v594q0 221 -375 221q-161 0 -375 -57v-758h-192v1493h192z" />
    <glyph glyph-name="uni04BB" unicode="&#x4bb;" horiz-adv-x="1161" 
d="M168 0v1493h172v-602q88 105 172.5 152t185.5 47q143 0 234.5 -100t91.5 -257v-733h-172v733q0 86 -53.5 142.5t-136.5 56.5q-86 0 -168.5 -58t-153.5 -167v-707h-172z" />
    <glyph glyph-name="uni04C0" unicode="&#x4c0;" horiz-adv-x="569" 
d="M381 1493v-1493h-193v1493h193z" />
    <glyph glyph-name="uni04CF" unicode="&#x4cf;" horiz-adv-x="569" 
d="M381 1493v-1493h-193v1493h193z" />
    <glyph glyph-name="uni04D8" unicode="&#x4d8;" horiz-adv-x="1593" 
d="M80 819h1243q-19 182 -102 311q-66 103 -178.5 161.5t-245.5 58.5q-167 0 -289.5 -83t-188.5 -241l-188 37q183 455 666 455q214 0 378 -98t253.5 -276.5t89.5 -410.5q0 -174 -52 -320t-146 -247.5t-228.5 -158t-294.5 -56.5t-294.5 57t-228.5 159t-146 248t-52 320
q0 49 4 84zM1323 649h-1053q28 -249 167.5 -389.5t359.5 -140.5t359 140t167 390z" />
    <glyph glyph-name="afii10846" unicode="&#x4d9;" horiz-adv-x="1136" 
d="M84 578h790q-2 81 -14.5 132.5t-42.5 96.5q-44 67 -112 103t-150 36q-105 0 -178.5 -55t-108.5 -160h-162q32 175 153.5 274t305.5 99q227 0 357.5 -152t130.5 -417t-134 -423.5t-358 -158.5q-151 0 -266 75.5t-168 207.5q-43 105 -43 342zM870 438h-602q0 -145 82 -236
t213 -91q129 0 213 89t94 238z" />
    <glyph glyph-name="uni04E2" unicode="&#x4e2;" horiz-adv-x="1366" 
d="M969 449h-576l-157 -449h-203l532 1493h246l524 -1493h-213zM915 608l-229 680l-246 -680h475zM375 1907h121q15 -135 188 -135q83 0 131.5 35t54.5 100h121q-10 -136 -89 -206.5t-222 -70.5q-177 0 -262 117q-23 31 -32 65.5t-11 94.5z" />
    <glyph glyph-name="uni04E3" unicode="&#x4e3;" 
d="M1096 104v-133q-73 -18 -121 -18q-85 0 -128 36.5t-52 114.5q-91 -80 -175.5 -115.5t-185.5 -35.5q-162 0 -255 86.5t-93 236.5q0 209 188 289q49 22 104 32.5t240 33.5q103 15 139.5 39.5t37.5 81.5v32q0 78 -61.5 120t-178.5 42q-118 0 -178.5 -47t-71.5 -147h-172
q5 83 21.5 133.5t52.5 91.5q115 127 356 127q198 0 301 -75t103 -220v-629q0 -40 23.5 -62t64.5 -22q20 0 41 8zM795 336v192q-41 -18 -88 -28t-187 -31q-137 -20 -196.5 -65.5t-59.5 -129.5q0 -82 55.5 -127t155.5 -45q146 0 254 97q36 33 51 64t15 73zM260 1499h121
q15 -135 188 -135q83 0 132 35.5t55 99.5h121q-10 -136 -89.5 -206t-222.5 -70q-178 0 -262 116q-22 31 -32 66t-11 94z" />
    <glyph glyph-name="uni04E8" unicode="&#x4e8;" horiz-adv-x="1593" 
d="M795 1518q328 0 525.5 -217t197.5 -578q0 -185 -68.5 -348.5t-189.5 -265.5q-187 -158 -463 -158q-160 0 -294.5 56.5t-228.5 158t-146 247.5t-52 320q0 352 198.5 568.5t520.5 216.5zM1323 649h-1053q28 -249 167.5 -389.5t359.5 -140.5t359 140t167 390zM270 819h1053
q-28 250 -167 390.5t-359 140.5t-359.5 -141t-167.5 -390z" />
    <glyph glyph-name="uni04E9" unicode="&#x4e9;" 
d="M567 1104q233 0 360.5 -152t127.5 -432q0 -264 -129.5 -415.5t-356.5 -151.5q-229 0 -357 152t-128 423q0 270 128 423t355 153zM872 453h-606q17 -164 95.5 -253t207.5 -89t207.5 89t95.5 253zM266 604h606q-17 164 -95.5 253t-207.5 89t-207.5 -89t-95.5 -253z" />
    <glyph glyph-name="uni04EE" unicode="&#x4ee;" horiz-adv-x="1345" 
d="M356 680v-512h879v-168h-1071v1493h1034v-168h-842v-477h811v-168h-811zM375 1907h121q15 -135 190 -135q82 0 130 35.5t54 99.5h121q-10 -136 -89 -206.5t-222 -70.5q-177 0 -262 117q-38 53 -43 160z" />
    <glyph glyph-name="uni04EF" unicode="&#x4ef;" horiz-adv-x="1136" 
d="M1053 479h-791q2 -81 14.5 -132.5t42.5 -96.5q44 -67 112.5 -103t150.5 -36q105 0 178 55t108 160h162q-32 -175 -153.5 -274t-305.5 -99q-227 0 -357 151.5t-130 417.5t133.5 424t357.5 158q151 0 266.5 -75.5t168.5 -207.5q43 -105 43 -342zM266 618h602
q0 145 -82.5 236.5t-212.5 91.5q-129 0 -213 -89.5t-94 -238.5zM260 1499h119q15 -135 190 -135q82 0 131 35.5t56 99.5h121q-12 -136 -91.5 -206t-220.5 -70q-181 0 -262 116q-23 31 -32 65.5t-11 94.5z" />
    <glyph glyph-name="Wgrave" unicode="&#x1e80;" horiz-adv-x="1933" 
d="M1524 0h-209l-344 1227l-334 -1227h-209l-383 1493h213l281 -1212l331 1212h205l340 -1212l275 1212h213zM942 1923l197 -303h-123l-305 303h231z" />
    <glyph glyph-name="wgrave" unicode="&#x1e81;" horiz-adv-x="1478" 
d="M1135 0h-195l-217 842l-207 -842h-192l-312 1073h189l219 -835l205 835h209l210 -835l213 835h193zM674 1516l198 -304h-124l-304 304h230z" />
    <glyph glyph-name="Wacute" unicode="&#x1e82;" horiz-adv-x="1933" 
d="M1524 0h-209l-344 1227l-334 -1227h-209l-383 1493h213l281 -1212l331 1212h205l340 -1212l275 1212h213zM1126 1923h232l-305 -303h-123z" />
    <glyph glyph-name="wacute" unicode="&#x1e83;" horiz-adv-x="1478" 
d="M1135 0h-195l-217 842l-207 -842h-192l-312 1073h189l219 -835l205 835h209l210 -835l213 835h193zM754 1516h231l-305 -304h-123z" />
    <glyph glyph-name="Wdieresis" unicode="&#x1e84;" horiz-adv-x="1933" 
d="M1524 0h-209l-344 1227l-334 -1227h-209l-383 1493h213l281 -1212l331 1212h205l340 -1212l275 1212h213zM907 1872v-211h-213v211h213zM1239 1872v-211h-213v211h213z" />
    <glyph glyph-name="wdieresis" unicode="&#x1e85;" horiz-adv-x="1478" 
d="M1135 0h-195l-217 842l-207 -842h-192l-312 1073h189l219 -835l205 835h209l210 -835l213 835h193zM655 1464v-211h-213v211h213zM987 1464v-211h-213v211h213z" />
    <glyph glyph-name="Ygrave" unicode="&#x1ef2;" horiz-adv-x="1366" 
d="M793 586v-586h-191v586l-575 907h235l438 -727l426 727h228zM618 1923l197 -303h-123l-305 303h231z" />
    <glyph glyph-name="ygrave" unicode="&#x1ef3;" horiz-adv-x="1024" 
d="M795 1073h184l-477 -1298q-25 -64 -51 -102.5t-66 -67.5q-70 -51 -160 -51q-63 0 -114 26v154q60 -13 90 -13q54 0 84.5 24t52.5 81l65 170l-362 1077h182l275 -835zM434 1516l197 -304h-123l-305 304h231z" />
    <glyph glyph-name="uni2002" unicode="&#x2002;" horiz-adv-x="1024" 
 />
    <glyph glyph-name="endash" unicode="&#x2013;" 
d="M1149 639v-147h-1159v147h1159z" />
    <glyph glyph-name="emdash" unicode="&#x2014;" horiz-adv-x="2048" 
d="M2050 639v-147h-2068v147h2068z" />
    <glyph glyph-name="afii00208" unicode="&#x2015;" horiz-adv-x="2048" 
d="M2050 639v-147h-2068v147h2068z" />
    <glyph glyph-name="underscoredbl" unicode="&#x2017;" horiz-adv-x="1130" 
d="M1180 -463v-102h-1229v102h1229zM1180 -258v-102h-1229v102h1229z" />
    <glyph glyph-name="quoteleft" unicode="&#x2018;" horiz-adv-x="454" 
d="M324 977h-191v207q0 121 50 190.5t141 77.5v-78q-53 -8 -76.5 -52t-22.5 -132h99v-213z" />
    <glyph glyph-name="quoteright" unicode="&#x2019;" horiz-adv-x="454" 
d="M133 1493h191v-207q0 -123 -49.5 -192.5t-141.5 -75.5v78q54 7 77 50.5t21 133.5h-98v213z" />
    <glyph glyph-name="quotesinglbase" unicode="&#x201a;" horiz-adv-x="454" 
d="M133 213h191v-207q0 -123 -50.5 -192.5t-142.5 -75.5v78q56 8 79.5 51.5t20.5 132.5h-98v213z" />
    <glyph glyph-name="quotereversed" unicode="&#x201b;" horiz-adv-x="454" 
d="M324 1493v-213h-99q-2 -89 21.5 -133t77.5 -51v-78q-92 6 -141.5 75.5t-49.5 192.5v207h191z" />
    <glyph glyph-name="quotedblleft" unicode="&#x201c;" horiz-adv-x="681" 
d="M289 977h-191v207q0 121 50 190.5t141 77.5v-78q-53 -8 -76.5 -52t-22.5 -132h99v-213zM612 977h-190v207q0 121 49.5 190.5t140.5 77.5v-78q-52 -7 -76 -51.5t-22 -132.5h98v-213z" />
    <glyph glyph-name="quotedblright" unicode="&#x201d;" horiz-adv-x="681" 
d="M100 1452h191v-207q0 -123 -49.5 -192.5t-141.5 -75.5v78q54 7 77.5 51t21.5 133h-99v213zM428 1452h190v-207q0 -123 -49 -192.5t-141 -75.5v78q54 7 77 50.5t21 133.5h-98v213z" />
    <glyph glyph-name="quotedblbase" unicode="&#x201e;" horiz-adv-x="681" 
d="M96 213h191v-207q0 -123 -49.5 -192.5t-141.5 -75.5v78q54 7 77.5 51t21.5 133h-99v213zM424 213h190v-207q0 -123 -49 -192.5t-141 -75.5v78q54 7 77 50.5t21 133.5h-98v213z" />
    <glyph glyph-name="dagger" unicode="&#x2020;" 
d="M1051 1028v-168h-398v-1222h-180v1222h-395v168h395v424h180v-424h398z" />
    <glyph glyph-name="daggerdbl" unicode="&#x2021;" 
d="M1051 1028v-168h-398v-629h398v-168h-398v-425h-180v425h-395v168h395v629h-395v168h395v424h180v-424h398z" />
    <glyph glyph-name="bullet" unicode="&#x2022;" horiz-adv-x="716" 
d="M358 963q107 0 181.5 -76t74.5 -185q0 -103 -76 -177t-180 -74q-106 0 -181 75t-75 181t75 181t181 75z" />
    <glyph glyph-name="ellipsis" unicode="&#x2026;" horiz-adv-x="2048" 
d="M449 213v-213h-213v213h213zM1130 213v-213h-212v213h212zM1812 213v-213h-213v213h213z" />
    <glyph glyph-name="perthousand" unicode="&#x2030;" horiz-adv-x="2048" 
d="M324 1491q129 0 218 -90t89 -221q0 -126 -90 -216t-215 -90q-128 0 -218 90.5t-90 219.5q0 127 90 217t216 90zM324 1368q-77 0 -131 -54t-54 -130q0 -77 54.5 -132t132.5 -55q75 0 129.5 54.5t54.5 130.5q0 78 -54 132t-132 54zM1008 1511h135l-809 -1552h-135zM989 571
q129 0 218 -90t89 -221q0 -124 -90 -214.5t-215 -90.5q-128 0 -217.5 90t-89.5 219q0 127 89.5 217t215.5 90zM989 449q-76 0 -130 -54t-54 -131q0 -76 54.5 -131t129.5 -55q76 0 131.5 54.5t55.5 129.5q0 78 -54.5 132.5t-132.5 54.5zM1726 571q129 0 218.5 -90.5
t89.5 -220.5q0 -126 -90 -215.5t-215 -89.5q-127 0 -217.5 90.5t-90.5 218.5q0 126 89.5 216.5t215.5 90.5zM1726 449q-76 0 -130 -54t-54 -131q0 -76 55 -131t132 -55q75 0 129.5 54.5t54.5 129.5q0 78 -54.5 132.5t-132.5 54.5z" />
    <glyph glyph-name="minute" unicode="&#x2032;" horiz-adv-x="385" 
d="M330 1378l-146 -524h-116l110 524h152z" />
    <glyph glyph-name="second" unicode="&#x2033;" horiz-adv-x="724" 
d="M365 1378l-146 -524h-117l111 524h152zM637 1378l-145 -524h-117l110 524h152z" />
    <glyph glyph-name="guilsinglleft" unicode="&#x2039;" horiz-adv-x="681" 
d="M186 465v182l312 250v-170l-217 -170l217 -170v-170z" />
    <glyph glyph-name="guilsinglright" unicode="&#x203a;" horiz-adv-x="681" 
d="M489 649v-182l-315 -250v170l221 170l-221 170v170z" />
    <glyph glyph-name="exclamdbl" unicode="&#x203c;" horiz-adv-x="1024" 
d="M399 1493v-692l-45 -457h-82l-43 457v692h170zM399 213v-213h-172v213h172zM909 1493v-692l-45 -457h-82l-43 457v692h170zM909 213v-213h-172v213h172z" />
    <glyph glyph-name="uni203E" unicode="&#x203e;" horiz-adv-x="681" 
d="M954 1853v-102h-1228v102h1228z" />
    <glyph glyph-name="fraction" unicode="&#x2044;" horiz-adv-x="569" 
d="M682 1452h119l-926 -1493h-119z" />
    <glyph glyph-name="zerosuperior" unicode="&#x2070;" horiz-adv-x="681" 
d="M336 1452q307 0 307 -457q0 -215 -78.5 -328.5t-226.5 -113.5q-151 0 -229 115t-78 336q0 220 78 334t227 114zM336 1343q-176 0 -176 -342q0 -346 174 -346q92 0 136 85.5t44 265.5q0 337 -178 337z" />
    <glyph glyph-name="foursuperior" unicode="&#x2074;" horiz-adv-x="681" 
d="M395 786h-385v121l418 545h94v-557h137v-109h-137v-204h-127v204zM395 895v348l-264 -348h264z" />
    <glyph glyph-name="fivesuperior" unicode="&#x2075;" horiz-adv-x="681" 
d="M602 1452v-119h-383l-31 -217q70 43 160 43q133 0 218 -82t85 -211q0 -137 -90 -225t-231 -88q-80 0 -146.5 27.5t-107.5 76.5q-40 51 -58 148h127q39 -143 183 -143q91 0 142.5 51.5t51.5 140.5q0 90 -52.5 143.5t-141.5 53.5q-52 0 -89 -18t-77 -62h-115l70 481h485z
" />
    <glyph glyph-name="sixsuperior" unicode="&#x2076;" horiz-adv-x="681" 
d="M633 1214h-127q-28 129 -150 129q-89 0 -142.5 -81.5t-53.5 -217.5q51 47 96 65.5t109 18.5q125 0 205.5 -78.5t80.5 -199.5q0 -129 -86.5 -213t-218.5 -84q-315 0 -315 426q0 224 84 348q41 60 107 92.5t143 32.5q110 0 179.5 -62t88.5 -176zM350 1020q-82 0 -132 -47.5
t-50 -124.5q0 -80 51 -133t129 -53q75 0 124.5 51t49.5 129q0 82 -46.5 130t-125.5 48z" />
    <glyph glyph-name="sevensuperior" unicode="&#x2077;" horiz-adv-x="681" 
d="M662 1452v-98q-156 -195 -246 -380.5t-127 -391.5h-135q53 217 131 375.5t239 375.5h-487v119h625z" />
    <glyph glyph-name="eightsuperior" unicode="&#x2078;" horiz-adv-x="681" 
d="M502 1040q147 -72 147 -215q0 -121 -86.5 -196.5t-226.5 -75.5t-226.5 75.5t-86.5 198.5q0 141 147 213q-64 37 -90.5 77t-26.5 100q0 104 79 169.5t204 65.5t203.5 -65.5t78.5 -169.5q0 -60 -26.5 -100t-89.5 -77zM336 1343q-70 0 -112 -35t-42 -94q0 -58 41.5 -92.5
t112.5 -34.5q69 0 111 34.5t42 92.5q0 60 -41 94.5t-112 34.5zM336 985q-83 0 -133.5 -45t-50.5 -117t50 -116.5t132 -44.5q85 0 135.5 44t50.5 117q0 72 -50.5 117t-133.5 45z" />
    <glyph glyph-name="ninesuperior" unicode="&#x2079;" horiz-adv-x="681" 
d="M43 791h127q12 -63 50 -96t97 -33q92 0 143.5 79t53.5 222q-53 -50 -96 -68t-107 -18q-126 0 -206 77.5t-80 200.5q0 129 87 213t220 84q313 0 313 -424q0 -121 -20 -204t-64 -146q-43 -60 -108 -92.5t-142 -32.5q-110 0 -180.5 62.5t-87.5 175.5zM328 1343
q-75 0 -124.5 -51t-49.5 -129q0 -83 46 -130.5t126 -47.5q79 0 130.5 48.5t51.5 123.5q0 80 -51 133t-129 53z" />
    <glyph glyph-name="nsuperior" unicode="&#x207f;" horiz-adv-x="747" 
d="M102 1180h111v-88q79 106 213 106q99 0 159 -48t60 -126v-477h-121v438q0 57 -34.5 91t-92.5 34q-80 0 -127 -58.5t-47 -156.5v-348h-121v633z" />
    <glyph glyph-name="franc" unicode="&#x20a3;" 
d="M276 680v-680h-190v1493h1001v-168h-811v-477h304v-168h-304zM612 1073h158v-194q74 120 142 172.5t151 52.5q21 0 65 -6v-174q-177 4 -259.5 -84.5t-84.5 -282.5v-557h-172v1073z" />
    <glyph glyph-name="lira" unicode="&#x20a4;" 
d="M750 657h-279q18 -52 23 -75h258v-113h-254q-13 -72 -67.5 -150t-170.5 -194q121 80 248 80q71 0 170 -31q116 -33 160 -33q81 0 172 64l86 -135q-62 -62 -125.5 -89.5t-145.5 -27.5q-55 0 -112 14t-185 58q-68 22 -135 22q-105 0 -223 -74l-100 136q126 103 185 186
t71 174h-271v113h258q-15 41 -34 75h-226v113h166l-14 23q-58 96 -76 146.5t-18 115.5q0 186 141 312t348 126q129 0 232 -54t157 -149q57 -95 60 -272h-181q-12 315 -278 315q-130 0 -209.5 -71.5t-79.5 -188.5q0 -58 16 -103.5t72 -142.5q6 -10 16.5 -28t16.5 -29h328
v-113z" />
    <glyph glyph-name="peseta" unicode="&#x20a7;" horiz-adv-x="2240" 
d="M1296 633v-82h-110v-434q0 -37 10 -47.5t45 -10.5q21 0 55 9v-86q-59 -11 -94 -11q-64 0 -99.5 27t-35.5 74v479h-90v82h90v174h119v-174h110zM2030 457h-127q-3 102 -125 102q-65 0 -100.5 -25t-35.5 -71q0 -34 27.5 -55.5t89.5 -34.5l101 -23q103 -23 148.5 -65
t45.5 -113q0 -91 -76.5 -146t-203.5 -55q-264 0 -273 217h125q10 -69 45.5 -97t110.5 -28q67 0 107 27.5t40 73.5q0 36 -22 57t-72 31l-98 24q-123 28 -171 67.5t-48 113.5q0 88 71.5 141t190.5 53t184 -50t66 -144zM424 633v-633h-191v1493h265q221 0 339.5 -113.5
t118.5 -324.5q0 -103 -31 -179t-98 -137q-118 -106 -288 -106h-115zM424 801h45q135 0 212 69.5t77 192.5t-77 192.5t-212 69.5h-45v-524z" />
    <glyph glyph-name="Euro" unicode="&#x20ac;" 
d="M162 641v49q0 47 4 86h-162l45 121h129q30 195 135 348q143 207 406 207q106 0 199 -32.5t194 -104.5l-65 -164q-112 83 -186 114t-156 31q-132 0 -214.5 -97.5t-125.5 -301.5h581l-47 -121h-553q-4 -54 -4 -74q0 -38 2 -61h504l-49 -121h-439q77 -405 347 -405
q75 0 144 25.5t196 99.5v-191q-152 -94 -340 -94q-130 0 -238 56t-168 155q-89 143 -127 354h-170l45 121h113z" />
    <glyph glyph-name="afii61248" unicode="&#x2105;" horiz-adv-x="1812" 
d="M1006 903v-213h-213v213h213z" />
    <glyph glyph-name="Ifraktur" unicode="&#x2111;" horiz-adv-x="1478" 
d="M983 479l-123 158q-25 32 -41 80t-16 88q0 61 31 108t118 115q-130 37 -331 37q-304 0 -304 -133q0 -53 43 -78q25 -13 134 -51q41 -13 68.5 -48t27.5 -73q0 -71 -88 -166q-4 67 -29.5 102t-118.5 101q-57 43 -82.5 93.5t-25.5 119.5q0 149 114 232t318 83q254 0 530 -96
l-4 -29q-128 -89 -172.5 -143.5t-44.5 -120.5q0 -54 21 -91t102 -126q72 -78 103.5 -142t31.5 -132q0 -77 -36.5 -146.5t-100.5 -111.5q-78 -52 -176 -90.5t-154 -38.5q-47 0 -116 34l-138 68q-56 27 -102 27q-40 0 -117 -31l-20 16q76 100 118 136t80 36q42 0 109 -33
l192 -92q64 -31 89.5 -39t56.5 -8q55 0 94 57.5t39 139.5q0 49 -17 88t-63 100z" />
    <glyph glyph-name="afii61289" unicode="&#x2113;" horiz-adv-x="661" 
d="M266 598q-24 -126 -46.5 -280t-22.5 -193q0 -57 43 -57q31 0 56.5 28t57.5 97q18 38 43 38q11 0 19 -8t8 -18q0 -44 -41 -109q-75 -133 -182 -133q-70 0 -110 49t-40 135q0 88 29 306q-40 -40 -79.5 -71.5t-49.5 -31.5q-9 0 -18 11t-9 22q0 17 47 61q44 38 125 127
q92 488 197 715t237 227q60 0 97 -48.5t37 -127.5q0 -87 -36.5 -198t-99.5 -217q-72 -125 -262 -324zM287 711q176 192 248 387q51 138 51 245q0 40 -16 64.5t-42 24.5q-47 0 -84 -68t-73.5 -221t-83.5 -432z" />
    <glyph glyph-name="afii61352" unicode="&#x2116;" horiz-adv-x="2197" 
d="M1094 1493v-1493h-183l-657 1210v-1210h-154v1493h176l664 -1221v1221h154zM1669 1518q192 0 318.5 -160.5t126.5 -403.5q0 -251 -124 -411t-317 -160q-200 0 -323 157t-123 412q0 161 56.5 290.5t158 202.5t227.5 73zM1669 1348q-127 0 -208 -110.5t-81 -283.5
q0 -179 81.5 -290t211.5 -111q126 0 206.5 110t80.5 281q0 183 -79.5 293.5t-211.5 110.5zM1247 0v170h848v-170h-848z" />
    <glyph glyph-name="weierstrass" unicode="&#x2118;" horiz-adv-x="1327" 
d="M602 823l23 -32q-145 -85 -209 -173.5t-64 -203.5q0 -67 25 -121q242 253 370.5 342.5t249.5 89.5q89 0 145 -65t56 -171q0 -176 -129 -323q-72 -85 -155.5 -132.5t-159.5 -47.5q-78 0 -128.5 44.5t-50.5 114.5q0 58 32.5 100t76.5 42q26 0 42.5 -16.5t16.5 -41.5
q0 -29 -20.5 -49.5t-54.5 -23.5q-43 -3 -43 -43q0 -35 36.5 -62.5t83.5 -27.5q52 0 105.5 35t91.5 94q52 76 85.5 181t33.5 189q0 68 -31.5 110t-83.5 42q-56 0 -118.5 -33.5t-157.5 -114.5q-161 -132 -275 -274q63 -130 89 -210t26 -142q0 -103 -58 -174.5t-141 -71.5
q-75 0 -125.5 54.5t-50.5 137.5q0 63 28 126.5t107 179.5q-47 122 -47 196q0 252 379 475zM289 111q-77 -118 -97 -163.5t-20 -105.5q0 -66 37 -108.5t94 -42.5q46 0 75.5 30.5t29.5 77.5q0 94 -119 312z" />
    <glyph glyph-name="Rfraktur" unicode="&#x211c;" horiz-adv-x="1593" 
d="M238 25l-35 10q34 100 77.5 146t106.5 46q30 0 54.5 -10t62.5 -37q26 -16 41 -16q14 0 32.5 23t28.5 53q27 80 27 225v303v20v21q0 136 -53.5 213.5t-147.5 77.5q-80 0 -134 -56t-54 -139q0 -80 65 -133q13 -11 30.5 -21t98.5 -51q92 -48 92 -112q0 -40 -20.5 -81
t-71.5 -101l-22 6q6 30 6 49q0 73 -117 139q-91 51 -124.5 104.5t-33.5 147.5q0 161 105 273t256 112q78 0 145.5 -36.5t108.5 -100.5q129 135 295 135q129 0 216 -83t87 -206q0 -82 -65 -141.5t-210 -110.5q45 -28 70 -68.5t49 -127.5l60 -228q13 -58 32 -81t52 -23
q10 0 45 12l26 -28q-61 -76 -123 -119t-112 -43q-57 0 -92 137l-86 344q-19 75 -28.5 97t-29.5 34q-30 21 -92 21q-12 0 -33 -3v-116q0 -213 -90 -350q-52 -76 -112 -118t-119 -42q-42 0 -61 8t-91 55q-24 17 -53 17q-31 0 -59 -47zM823 770v-76q97 24 138.5 37.5t85.5 36.5
q46 25 73 69t27 95q0 77 -54 126.5t-139 49.5q-48 0 -81.5 -11.5t-77.5 -43.5q19 -67 23.5 -112t4.5 -171z" />
    <glyph glyph-name="uni211E" unicode="&#x211e;" horiz-adv-x="1554" 
d="M965 582l110 -172l107 163h194l-209 -294l185 -279h-195l-88 135l-90 -135h-186l188 270l-209 310h-274v-580h-174v1366h565q203 0 312.5 -103.5t109.5 -295.5q0 -234 -191 -342q-67 -37 -155 -43zM498 733h364q126 0 196 63t70 177q0 113 -70 176t-196 63h-364v-479z
" />
    <glyph glyph-name="trademark" unicode="&#x2122;" horiz-adv-x="2048" 
d="M584 1380v-782h-140v782h-315v113h768v-113h-313zM1532 598h-143l-248 698v-698h-137v895h192l270 -741l269 741h186v-895h-137v698z" />
    <glyph glyph-name="uni2126" unicode="&#x2126;" horiz-adv-x="1572" 
d="M1104 168h412v-168h-617v160q90 50 141.5 87.5t98.5 88.5q168 189 168 455q0 125 -38.5 223t-121.5 184q-77 80 -162 116t-199 36q-113 0 -198 -36t-162 -116q-83 -86 -121.5 -184t-38.5 -223q0 -287 193 -480q77 -77 215 -151v-160h-617v168h412q-201 115 -297 273
t-96 372q0 321 235 528q201 177 475 177q275 0 476 -177q235 -207 235 -528q0 -214 -96 -372t-297 -273z" />
    <glyph glyph-name="estimated" unicode="&#x212e;" horiz-adv-x="1228" 
d="M1081 500h-764v-201q17 -57 33.5 -86.5t42.5 -52.5q76 -70 213 -70q205 0 301 156q14 18 31 59h117l-4 -14q-99 -318 -451 -318q-227 0 -357 146.5t-130 402.5q0 257 133 409t358 152q177 0 301 -95.5t158 -258.5q16 -76 18 -215v-14zM905 598v174q-14 44 -43 78
q-54 62 -114.5 89.5t-143.5 27.5q-105 0 -168 -43.5t-114 -151.5v-174h583z" />
    <glyph glyph-name="aleph" unicode="&#x2135;" horiz-adv-x="1024" 
d="M612 598l138 324h-82q-49 0 -74 5.5t-39 22.5q-45 39 -45 131q0 117 88 211v-32q0 -49 24 -69t83 -20h139q67 0 96 -33.5t29 -111.5q0 -82 -27 -176q-6 38 -23 55t-51 17h-45l-90 -217q-31 -82 -31 -132t19.5 -91.5t77.5 -114.5l80 -101q38 -49 52.5 -80.5t14.5 -64.5
q0 -54 -31 -121l-612 770q-29 -54 -38 -80t-9 -55q0 -46 21 -93.5t73 -117.5q85 -114 108 -162t23 -110q0 -91 -45 -121.5t-180 -30.5h-168v125h37q72 0 72 57q0 17 -6.5 30t-47.5 81q-59 104 -59 160q0 60 57 165l115 216l-143 178q-56 70 -56 123q0 59 31 129z" />
    <glyph glyph-name="oneeighth" unicode="&#x215b;" horiz-adv-x="1708" 
d="M1208 1452h119l-926 -1493h-118zM315 1188h-202v94l30 2q110 11 147.5 40.5t63.5 127.5h88v-870h-127v606zM1483 459q149 -73 149 -217q0 -120 -82 -195.5t-211 -75.5q-130 0 -211 75.5t-81 195.5q0 144 149 217q-68 41 -93.5 80t-25.5 100q0 103 73 167t189 64
q117 0 190 -64t73 -167q0 -61 -25.5 -100t-93.5 -80zM1339 774q-69 0 -110 -37t-41 -100q0 -62 41 -98.5t110 -36.5q68 0 110 36.5t42 96.5q0 64 -41.5 101.5t-110.5 37.5zM1339 412q-82 0 -132 -47.5t-50 -124.5q0 -76 50 -124t130 -48q83 0 134 47t51 125
q0 77 -50.5 124.5t-132.5 47.5z" />
    <glyph glyph-name="threeeighths" unicode="&#x215c;" horiz-adv-x="1708" 
d="M1268 1452h118l-925 -1493h-119zM1487 459q149 -73 149 -217q0 -120 -82 -195.5t-211 -75.5q-130 0 -211 75.5t-81 195.5q0 144 149 217q-68 41 -93.5 80t-25.5 100q0 103 73 167t189 64q117 0 190 -64t73 -167q0 -61 -25.5 -100t-93.5 -80zM1343 774q-69 0 -110 -37
t-41 -100q0 -62 41 -98.5t110 -36.5q68 0 110 36.5t42 96.5q0 64 -41.5 101.5t-110.5 37.5zM1343 412q-82 0 -132 -47.5t-50 -124.5q0 -76 50 -124t130 -48q83 0 134 47t51 125q0 77 -50.5 124.5t-132.5 47.5zM315 975v104q132 0 179 26.5t47 98.5q0 66 -41 102.5t-115 36.5
q-108 0 -147 -71q-19 -37 -19 -111h-129q6 291 295 291q132 0 208.5 -65.5t76.5 -180.5q0 -120 -117 -174q145 -49 145 -205q0 -125 -86 -199.5t-231 -74.5q-148 0 -228.5 76t-80.5 215h127q4 -95 49 -138.5t137 -43.5q88 0 136 43.5t48 121.5q0 148 -188 148h-47h-19z" />
    <glyph glyph-name="fiveeighths" unicode="&#x215d;" horiz-adv-x="1708" 
d="M1268 1452h118l-925 -1493h-119zM1485 459q151 -73 151 -217q0 -120 -82 -195.5t-211 -75.5q-130 0 -211 75.5t-81 195.5q0 144 149 217q-69 41 -94 79.5t-25 100.5q0 103 72.5 167t189.5 64q116 0 189.5 -64.5t73.5 -166.5q0 -61 -26 -100t-95 -80zM1341 774
q-68 0 -108.5 -37t-40.5 -100q0 -62 41 -98.5t110 -36.5q68 0 110 36.5t42 96.5q0 64 -41.5 101.5t-112.5 37.5zM1343 412q-83 0 -132.5 -47.5t-49.5 -124.5t49.5 -124.5t128.5 -47.5q85 0 136 47t51 125q0 77 -50.5 124.5t-132.5 47.5zM618 1485v-107h-364l-33 -241
q71 51 160 51q126 0 204.5 -80.5t78.5 -210.5q0 -138 -83.5 -224.5t-215.5 -86.5q-74 0 -136.5 27.5t-99.5 76.5q-35 42 -53 137h108q37 -145 178 -145q88 0 139.5 54t51.5 147q0 97 -51.5 153t-139.5 56q-51 0 -86.5 -18t-72.5 -62h-101l66 473h450z" />
    <glyph glyph-name="seveneighths" unicode="&#x215e;" horiz-adv-x="1708" 
d="M1141 1452h119l-926 -1493h-119zM1468 459q150 -74 150 -217q0 -120 -82 -195.5t-211 -75.5q-130 0 -211.5 75.5t-81.5 195.5q0 144 150 217q-68 41 -93.5 80t-25.5 100q0 103 73 167t189 64q117 0 189.5 -64t72.5 -167q0 -61 -25.5 -100t-93.5 -80zM1325 774
q-69 0 -110 -37t-41 -100q0 -62 41 -98.5t110 -36.5q68 0 110 36.5t42 96.5q0 64 -41.5 101.5t-110.5 37.5zM1325 412q-82 0 -132 -47.5t-50 -124.5q0 -76 50 -124t130 -48q83 0 133.5 47t50.5 125q0 77 -50 124.5t-132 47.5zM694 1485v-90q-147 -196 -232 -383.5
t-122 -397.5h-115q50 215 126 378t231 386h-469v107h581z" />
    <glyph glyph-name="arrowleft" unicode="&#x2190;" horiz-adv-x="2048" 
d="M1870 575h-1356q37 -44 82 -132.5t45 -116.5q0 -13 -11 -23t-26 -10q-12 0 -20.5 7t-32.5 34q-62 72 -136 129.5t-186 120.5q-31 17 -43 28t-12 21q0 14 7 22.5t34 22.5q151 90 212.5 139.5t137.5 140.5q20 23 39 23q15 0 26 -10t11 -23q0 -12 -16.5 -55.5t-32.5 -73.5
q-37 -66 -78 -121h1356v-123z" />
    <glyph glyph-name="arrowup" unicode="&#x2191;" horiz-adv-x="1024" 
d="M430 -219v1356q-46 -37 -134 -82t-116 -45q-13 0 -23 11t-10 26q0 12 7 20.5t34 32.5q72 62 129.5 135.5t120.5 185.5q31 56 49 56q14 0 22.5 -7t22.5 -34q90 -150 139.5 -212.5t141.5 -138.5q23 -20 23 -38q0 -15 -10 -26t-23 -11q-12 0 -55.5 16.5t-73.5 32.5
q-66 37 -121 78v-1356h-123z" />
    <glyph glyph-name="arrowright" unicode="&#x2192;" horiz-adv-x="2048" 
d="M174 575v123h1356q-55 75 -86 138q-12 25 -26.5 64t-14.5 48q0 13 11 23t26 10q19 0 39 -23q78 -93 145 -145.5t221 -142.5q25 -16 25 -37q0 -10 -12 -21t-43 -28q-112 -63 -186 -120.5t-136 -129.5q-24 -27 -32.5 -34t-20.5 -7q-15 0 -26 10t-11 23q0 28 45 116.5
t82 132.5h-1356z" />
    <glyph glyph-name="arrowdown" unicode="&#x2193;" horiz-adv-x="1024" 
d="M430 1477h123v-1356q77 57 137 86q25 12 64.5 26.5t48.5 14.5q13 0 23 -11t10 -26q0 -19 -23 -39q-92 -76 -145 -143.5t-144 -223.5q-15 -24 -37 -24q-10 0 -21 12t-28 43q-63 112 -120.5 186t-129.5 136q-27 24 -34 32.5t-7 20.5q0 15 10 26t23 11q28 0 117 -45t133 -82
v1356z" />
    <glyph glyph-name="arrowboth" unicode="&#x2194;" horiz-adv-x="2048" 
d="M1460 573h-874q51 -67 88 -137q13 -26 27 -63.5t14 -46.5q0 -13 -11 -23t-26 -10q-13 0 -21 6t-36 39q-67 78 -134.5 129.5t-212.5 136.5q-24 15 -24 37q0 10 12 21t43 28q113 64 185.5 121t134.5 129q24 27 32.5 34t20.5 7q15 0 26 -9.5t11 -21.5q0 -29 -44 -116
t-85 -138h874q-38 45 -82.5 134.5t-44.5 117.5q0 13 11 23t26 10q12 0 21.5 -7.5t31.5 -33.5q60 -70 133.5 -127.5t186.5 -122.5q33 -19 44 -29t11 -20q0 -16 -7 -24t-32 -21q-147 -88 -211.5 -139.5t-138.5 -141.5q-20 -22 -39 -22q-15 0 -26 10t-11 25q0 29 38 102.5
t89 142.5z" />
    <glyph glyph-name="arrowupdn" unicode="&#x2195;" horiz-adv-x="1024" 
d="M446 264v873q-67 -51 -137 -88q-26 -13 -63.5 -27t-46.5 -14q-14 0 -23.5 10.5t-9.5 25.5q0 14 6.5 22t38.5 36q78 68 130 135t136 211q16 25 37 25q18 0 49 -56q64 -113 120.5 -185t129.5 -134q27 -24 34 -33t7 -21q0 -15 -9.5 -25.5t-21.5 -10.5q-31 0 -117 44t-137 85
v-873q46 37 135 81t117 44q13 0 23 -11t10 -26q0 -12 -7.5 -21.5t-33.5 -31.5q-71 -60 -128.5 -133.5t-121.5 -185.5q-19 -33 -29 -44.5t-20 -11.5q-16 0 -24 7t-21 32q-88 147 -139.5 211.5t-141.5 138.5q-22 20 -22 39q0 15 10 26t25 11q29 0 102 -37.5t143 -87.5z" />
    <glyph glyph-name="uni2196" unicode="&#x2196;" horiz-adv-x="1478" 
d="M397 1157l893 -895l-86 -86l-893 895v-303h-125v514h512v-125h-301z" />
    <glyph glyph-name="uni2197" unicode="&#x2197;" horiz-adv-x="1478" 
d="M1081 1157h-303v125h514v-514h-125v303l-895 -895l-86 86z" />
    <glyph glyph-name="uni2198" unicode="&#x2198;" horiz-adv-x="1478" 
d="M1081 301l-895 895l86 86l895 -895v303h125v-514h-514v125h303z" />
    <glyph glyph-name="uni2199" unicode="&#x2199;" horiz-adv-x="1478" 
d="M397 301h301v-125h-512v514h125v-303l893 895l86 -86z" />
    <glyph glyph-name="arrowupdnbse" unicode="&#x21a8;" horiz-adv-x="1024" 
d="M246 -139h540v-88h-540v88zM446 401v873q-67 -51 -137 -88q-26 -13 -63.5 -27t-46.5 -14q-13 0 -23 11t-10 26q0 13 6 21t39 36q78 68 130 135t136 211q16 25 37 25q18 0 49 -56q64 -113 120.5 -185t129.5 -134q27 -24 34 -32.5t7 -20.5q0 -15 -9.5 -26t-21.5 -11
q-31 0 -117 44t-137 85v-873q46 37 135 81t117 44q13 0 23 -11t10 -26q0 -12 -7.5 -21.5t-33.5 -31.5q-71 -60 -128.5 -133.5t-121.5 -185.5q-19 -33 -29 -44.5t-20 -11.5q-16 0 -24 7t-21 32q-89 148 -140 212.5t-141 138.5q-22 20 -22 38q0 15 10 26t25 11q29 0 102 -37.5
t143 -87.5z" />
    <glyph glyph-name="carriagereturn" unicode="&#x21b5;" horiz-adv-x="2048" 
d="M1810 1069v-500h-1275l430 -168l-47 -106l-586 262v158l586 260l47 -109l-430 -166h1144v369h131z" />
    <glyph glyph-name="arrowdblleft" unicode="&#x21d0;" horiz-adv-x="1478" 
d="M162 604l168 -145h1130v-86h-1030l123 -107v-116l-537 454l537 457v-119l-123 -106h1030v-86h-1130z" />
    <glyph glyph-name="arrowdblup" unicode="&#x21d1;" horiz-adv-x="1478" 
d="M739 1182l-145 -168v-1014h-86v913l-107 -122h-116l454 536l455 -536h-117l-106 122v-913h-86v1014z" />
    <glyph glyph-name="arrowdblright" unicode="&#x21d2;" horiz-adv-x="1478" 
d="M1317 604l-168 146h-1131v86h1031l-123 106v119l536 -457l-536 -454v116l123 107h-1031v86h1131z" />
    <glyph glyph-name="arrowdbldown" unicode="&#x21d3;" horiz-adv-x="1478" 
d="M739 145l146 168v1014h86v-913l106 123h117l-455 -537l-454 537h116l107 -123v913h86v-1014z" />
    <glyph glyph-name="arrowdblboth" unicode="&#x21d4;" horiz-adv-x="1478" 
d="M416 836h643l-123 106v119l537 -457l-537 -454v116l123 107h-643l123 -107v-116l-537 454l537 457v-119zM315 750l-168 -146l168 -145h844l168 145l-168 146h-844z" />
    <glyph glyph-name="universal" unicode="&#x2200;" horiz-adv-x="569" 
d="M549 956l139 410h195l-480 -1366h-225l-487 1366h186l143 -410h529zM500 811h-434l223 -623z" />
    <glyph glyph-name="partialdiff" unicode="&#x2202;" horiz-adv-x="974" 
d="M209 1372l-82 107q126 57 270 57q155 0 278.5 -90.5t193 -252.5t69.5 -364q0 -161 -38.5 -337.5t-96.5 -280.5q-135 -242 -369 -242q-164 0 -276.5 115.5t-112.5 282.5q0 99 40.5 196.5t111.5 169.5q103 103 249 103q83 0 142.5 -26t165.5 -108q22 148 22 232
q0 113 -30 220t-82 179q-75 107 -226 107q-58 0 -86.5 -8.5t-142.5 -59.5zM739 623q-81 129 -215 129q-124 0 -212.5 -128t-88.5 -307q0 -133 48.5 -207.5t134.5 -74.5q84 0 151.5 65t108.5 185q40 115 73 338z" />
    <glyph glyph-name="existential" unicode="&#x2203;" horiz-adv-x="872" 
d="M-86 1409h977v-1409h-985v162h799v487h-738v152h738v446h-791v162z" />
    <glyph glyph-name="emptyset" unicode="&#x2205;" horiz-adv-x="2048" 
d="M213 78l248 207q-119 186 -119 397q0 115 35 223.5t99.5 195.5t150 152.5t191.5 101.5t220 36q285 0 496 -211l225 190l66 -78l-228 -188q136 -195 136 -424q0 -143 -55 -274t-148.5 -226t-222 -151t-269.5 -56q-302 0 -516 234l-246 -205zM539 350l919 768
q-179 182 -420 182q-161 0 -298 -82.5t-216.5 -225t-79.5 -310.5q0 -179 95 -332zM1522 1040l-924 -772q181 -205 440 -205q120 0 229.5 49t189 131.5t126.5 197t47 239.5q0 200 -108 360z" />
    <glyph glyph-name="Delta" unicode="&#x2206;" horiz-adv-x="1253" 
d="M-53 0l575 1493h205l580 -1493h-1360zM625 1262l-406 -1094h813z" />
    <glyph glyph-name="gradient" unicode="&#x2207;" horiz-adv-x="1517" 
d="M141 1290h1237l-530 -1290h-180zM758 209l375 932h-748z" />
    <glyph glyph-name="element" unicode="&#x2208;" horiz-adv-x="2048" 
d="M1571 442h-946q9 -162 95.5 -240t254.5 -75h596v-127h-574q-105 0 -159 7.5t-107 29.5q-122 53 -188 176t-66 301q0 298 203 432q57 38 123.5 52t193.5 14h574v-127h-596q-168 3 -254.5 -75.5t-95.5 -242.5h946v-125z" />
    <glyph glyph-name="notelement" unicode="&#x2209;" horiz-adv-x="2048" 
d="M1081 442l-178 -313q18 -2 72 -2h596v-127h-574q-92 0 -163 8l-78 -137l-88 47l67 117q-124 52 -191 176t-67 303q0 297 201 432q59 38 125.5 52t193.5 14h293l96 170l87 -49l-68 -121h166v-127h-238l-180 -318h418v-125h-490zM967 442h-342q4 -110 50 -185t126 -103z
M1219 885h-244q-168 3 -254.5 -75.5t-95.5 -242.5h413z" />
    <glyph glyph-name="suchthat" unicode="&#x220b;" horiz-adv-x="2048" 
d="M477 442v125h946q-15 324 -350 318h-596v127h574q105 0 159 -7.5t107 -29.5q119 -51 186.5 -174t67.5 -289q0 -312 -201 -446q-59 -38 -125.5 -52t-193.5 -14h-574v127h596q335 -9 350 315h-946z" />
    <glyph glyph-name="product" unicode="&#x220f;" horiz-adv-x="1685" 
d="M49 1505v51h1587v-51q-122 -5 -159.5 -44.5t-36.5 -160.5v-1222q-1 -121 36.5 -160.5t159.5 -44.5v-51h-626v51q122 5 159.5 44.5t36.5 160.5v1368h-727v-1368q-1 -121 37 -160.5t160 -44.5v-51h-627v51q122 5 160 44.5t37 160.5v1222q1 121 -37 160.5t-160 44.5z" />
    <glyph glyph-name="summation" unicode="&#x2211;" horiz-adv-x="1228" 
d="M1083 1542l13 -325h-39q-31 138 -83 183t-183 48h-474l488 -725l-524 -688h616q48 -1 78.5 1.5t59 12t45.5 23.5t35.5 42t32 62.5t32.5 89.5h45q-39 -163 -49 -248q-3 -21 -11 -76t-12 -85q0 -7 -6 -37h-1145l623 813l-623 909h1081z" />
    <glyph glyph-name="minus" unicode="&#x2212;" horiz-adv-x="1196" 
d="M1114 547v-144h-1032v144h1032z" />
    <glyph glyph-name="uni2213" unicode="&#x2213;" horiz-adv-x="2048" 
d="M485 1243v113h1074v-113h-1074zM1081 0h-112v489h-486v113h486v490h112v-490h486v-113h-486v-489z" />
    <glyph glyph-name="uni2215" unicode="&#x2215;" horiz-adv-x="569" 
d="M682 1452h119l-926 -1493h-119z" />
    <glyph glyph-name="asteriskmath" unicode="&#x2217;" horiz-adv-x="2048" 
d="M946 496l-215 75l78 134l172 -150l-39 227h164l-39 -227l172 150l78 -134l-215 -75l215 -78l-78 -133l-172 149l39 -227h-164l39 227l-172 -149l-78 133z" />
    <glyph glyph-name="uni2219" unicode="&#x2219;" horiz-adv-x="569" 
d="M432 874v-256h-254v256h254z" />
    <glyph glyph-name="radical" unicode="&#x221a;" horiz-adv-x="927" 
d="M885 1870l73 -10l-311 -1934l-493 1018l-193 -94l-37 68l303 149l396 -811z" />
    <glyph glyph-name="proportional" unicode="&#x221d;" horiz-adv-x="2048" 
d="M1397 342v-127q-92 -4 -187 50.5t-182 160.5q-38 -45 -59 -66q-61 -69 -139 -106t-158 -37q-120 0 -194.5 77t-74.5 200q0 124 77.5 203t197.5 79q183 0 350 -209q158 209 344 209h25v-125h-13q-66 0 -127 -36t-131 -117q81 -89 138.5 -121.5t132.5 -34.5zM928 498
q-19 19 -39 37q-73 68 -117.5 92t-97.5 24q-69 0 -109.5 -41.5t-40.5 -111.5t38 -113t100 -43q63 0 118.5 30.5t126.5 102.5q13 13 21 23z" />
    <glyph glyph-name="infinity" unicode="&#x221e;" horiz-adv-x="1460" 
d="M729 608q109 96 150 125q56 43 122 68.5t121 25.5q119 0 203 -84t84 -202q0 -119 -84.5 -203t-202.5 -84t-243 94q-51 38 -150 125q-110 -99 -147 -125q-57 -44 -122 -69t-122 -25q-118 0 -202.5 84t-84.5 203q0 118 84 202t203 84q55 0 121 -25.5t123 -68.5
q49 -37 147 -125zM803 541q88 -88 170.5 -135.5t146.5 -47.5q75 0 129 54t54 129q0 74 -54 127t-129 53q-64 0 -146.5 -47t-170.5 -133zM657 541q-87 87 -169.5 133.5t-147.5 46.5q-75 0 -128.5 -53t-53.5 -127t53.5 -127.5t128.5 -53.5q133 0 317 181z" />
    <glyph glyph-name="orthogonal" unicode="&#x221f;" horiz-adv-x="2004" 
d="M102 0v1782h136v-1647h1667v-135h-1803z" />
    <glyph glyph-name="angle" unicode="&#x2220;" horiz-adv-x="2048" 
d="M1317 854l59 -68l-721 -700h961v-86h-1184z" />
    <glyph glyph-name="uni2223" unicode="&#x2223;" horiz-adv-x="1478" 
d="M809 1368v-1368h-137v1368h137z" />
    <glyph glyph-name="uni2225" unicode="&#x2225;" horiz-adv-x="1478" 
d="M965 0h-138v1368h138v-1368zM651 1368v-1368h-137v1368h137z" />
    <glyph glyph-name="uni2227" unicode="&#x2227;" horiz-adv-x="2048" 
d="M1092 1051l458 -1051h-164l-362 838l-362 -838h-164l458 1051h136z" />
    <glyph glyph-name="uni2228" unicode="&#x2228;" horiz-adv-x="2048" 
d="M1092 0h-136l-458 1051h164l362 -838l362 838h164z" />
    <glyph glyph-name="intersection" unicode="&#x2229;" horiz-adv-x="1472" 
d="M1227 0h-144v557q0 193 -12 276.5t-47 139.5q-44 70 -122.5 111.5t-166.5 41.5q-93 0 -175.5 -47.5t-123.5 -124.5q-28 -53 -38.5 -138.5t-10.5 -258.5v-557h-143v551q0 250 15.5 340.5t72.5 165.5q141 194 403 194q138 0 250.5 -60t177.5 -167q40 -68 52 -156.5
t12 -316.5v-551z" />
    <glyph glyph-name="union" unicode="&#x222a;" horiz-adv-x="2048" 
d="M1475 1145v-504q0 -228 -14.5 -311t-65.5 -152q-63 -86 -158.5 -132t-212.5 -46q-128 0 -230.5 54.5t-160.5 154.5q-37 62 -48.5 142.5t-11.5 289.5v504h123v-510q0 -172 12.5 -251t47.5 -130q43 -61 115.5 -97t152.5 -36q91 0 170 45t117 119q23 44 32 119.5t9 230.5
v510h123z" />
    <glyph glyph-name="integral" unicode="&#x222b;" horiz-adv-x="561" 
d="M385 1071v-469q0 -266 -9 -401.5t-34 -233.5q-22 -89 -68 -135.5t-114 -46.5q-54 0 -91.5 33t-37.5 80q0 41 29 70.5t69 29.5q41 0 72 -31q16 -16 22.5 -20t16.5 -4q36 0 36 57q0 27 -12 156q-28 301 -28 430v467q0 270 9 403t34 232q22 89 68 135.5t112 46.5
q54 0 91.5 -32.5t37.5 -78.5q0 -43 -29 -72.5t-70 -29.5q-40 0 -71 31q-21 24 -39 24q-37 0 -37 -57q0 -27 12 -156q31 -327 31 -428z" />
    <glyph glyph-name="uni222E" unicode="&#x222e;" horiz-adv-x="2048" 
d="M932 1169v164q2 174 4 210t14 77q23 80 96 127t173 47q64 0 139 -22l-35 -164q-44 20 -84 20q-86 0 -111 -72q-10 -29 -10 -143v-244q148 -32 241 -147t93 -266q0 -150 -93.5 -266t-240.5 -148v-199q0 -184 -8.5 -243t-40.5 -105q-78 -110 -278 -110q-51 0 -99 18l35 164
q47 -23 84 -23q41 0 71 19t40 53q7 22 8.5 51t1.5 144v231q-143 32 -236.5 149.5t-93.5 264.5q0 149 91 263.5t239 149.5zM1118 1069v-625q107 32 171.5 117.5t64.5 194.5q0 108 -65.5 195t-170.5 118zM932 444v623q-104 -32 -168 -118t-64 -193t64.5 -194t167.5 -118z" />
    <glyph glyph-name="therefore" unicode="&#x2234;" horiz-adv-x="2048" 
d="M1028 1124q50 0 81.5 -32.5t31.5 -83.5q0 -50 -33 -83.5t-84 -33.5t-84 33t-33 84q0 53 33 84.5t88 31.5zM522 233q47 0 80 -33.5t33 -82.5q0 -51 -33 -84t-84 -33t-84 33t-33 84q0 52 33.5 84t87.5 32zM1534 233q47 0 80 -33.5t33 -82.5q0 -51 -33 -84t-84 -33t-84 33
t-33 84q0 52 33.5 84t87.5 32z" />
    <glyph glyph-name="uni2235" unicode="&#x2235;" horiz-adv-x="2048" 
d="M1026 254q54 0 89.5 -36.5t35.5 -90.5q0 -56 -35 -91.5t-90 -35.5q-58 0 -93.5 35t-35.5 92q0 55 36.5 91t92.5 36zM473 1225q54 0 89.5 -36.5t35.5 -90.5q0 -55 -35.5 -91t-89.5 -36q-57 0 -93 35.5t-36 91.5t36 91.5t93 35.5zM1579 1225q54 0 89.5 -36.5t35.5 -90.5
q0 -55 -35.5 -91t-89.5 -36q-57 0 -93 35.5t-36 91.5t36 91.5t93 35.5z" />
    <glyph glyph-name="uni2237" unicode="&#x2237;" horiz-adv-x="2048" 
d="M530 254q54 0 89.5 -36.5t35.5 -90.5q0 -55 -35.5 -91t-91.5 -36t-91.5 36t-35.5 91q0 56 36 91.5t93 35.5zM1520 254q54 0 89.5 -36.5t35.5 -90.5q0 -55 -35.5 -91t-91.5 -36t-91.5 36t-35.5 91q0 56 36 91.5t93 35.5zM530 1227q54 0 89.5 -36t35.5 -91
q0 -56 -35.5 -91.5t-91.5 -35.5t-91.5 35.5t-35.5 91.5t36 91.5t93 35.5zM1520 1227q54 0 89.5 -36t35.5 -91q0 -56 -35.5 -91.5t-91.5 -35.5t-91.5 35.5t-35.5 91.5t36 91.5t93 35.5z" />
    <glyph glyph-name="congruent" unicode="&#x2245;" horiz-adv-x="569" 
d="M776 559v-104h-985v104h985zM776 301v-102h-985v102h985zM688 891l74 -64q-88 -159 -270 -159q-45 0 -74 6t-139 41q-128 37 -154 43t-57 6q-53 0 -86.5 -21.5t-98.5 -95.5l-82 64q110 157 271 157q40 0 83 -9.5t150 -41.5q95 -29 128 -37t59 -8q55 0 93 23t103 96z" />
    <glyph glyph-name="approxequal" unicode="&#x2248;" horiz-adv-x="1124" 
d="M981 795l78 -74q-66 -94 -101 -137q-70 -86 -165 -86q-42 0 -77 10t-161 59q-159 60 -217 60q-61 0 -106 -35.5t-91 -120.5l-75 74q55 87 88 131q80 106 190 106q69 0 252 -73q89 -36 124.5 -46t74.5 -10q60 0 100.5 30.5t85.5 111.5zM981 467l78 -74q-66 -94 -101 -137
q-70 -86 -165 -86q-41 0 -75.5 10t-162.5 60q-156 59 -217 59t-106 -35.5t-91 -120.5l-75 74q55 87 88 131q81 107 190 107q66 0 252 -74q88 -35 123.5 -45t75.5 -10q61 0 101 30t85 111z" />
    <glyph glyph-name="notequal" unicode="&#x2260;" horiz-adv-x="1124" 
d="M322 227h-256v144h335l117 209h-452v143h532l156 272l102 -57l-121 -215h322v-143h-402l-116 -209h518v-144h-598l-156 -278l-104 59z" />
    <glyph glyph-name="equivalence" unicode="&#x2261;" horiz-adv-x="1193" 
d="M1094 547v-144h-992v144h992zM1094 195v-144h-992v144h992zM1094 899v-143h-992v143h992z" />
    <glyph glyph-name="lessequal" unicode="&#x2264;" horiz-adv-x="1124" 
d="M1059 115v-138h-1002v138h1002zM57 743v142l1002 424v-162l-807 -330l807 -336v-162z" />
    <glyph glyph-name="greaterequal" unicode="&#x2265;" horiz-adv-x="1124" 
d="M1059 115v-138h-1002v138h1002zM1059 885v-142l-1002 -424v162l807 330l-807 336v162z" />
    <glyph glyph-name="propersubset" unicode="&#x2282;" horiz-adv-x="2048" 
d="M1571 127v-127h-574q-105 0 -159 7.5t-107 29.5q-122 53 -188 176.5t-66 300.5q0 298 203 432q57 38 123.5 52t193.5 14h574v-127h-596q-186 0 -270 -90.5t-84 -288.5q0 -199 84 -289t270 -90h596z" />
    <glyph glyph-name="propersuperset" unicode="&#x2283;" horiz-adv-x="2048" 
d="M477 127h596q186 0 270 90t84 289t-84 289t-270 90h-596v127h574q105 0 159 -7.5t107 -29.5q120 -51 187 -175t67 -294q0 -307 -201 -440q-59 -38 -125.5 -52t-193.5 -14h-574v127z" />
    <glyph glyph-name="notsubset" unicode="&#x2284;" horiz-adv-x="2048" 
d="M870 4l-77 -133l-84 53l57 101q-138 44 -213.5 171.5t-75.5 317.5q0 297 201 432q59 38 125.5 52t193.5 14h349l88 149l86 -51l-58 -98h109v-127h-185l-444 -758h33h596v-127h-574q-82 0 -127 4zM1272 885h-297q-186 0 -270 -90.5t-84 -288.5q0 -307 215 -365z" />
    <glyph glyph-name="uni2285" unicode="&#x2285;" horiz-adv-x="2048" 
d="M635 0h-209v137h289l483 824q-47 8 -121 8h-651v137h625q139 0 223 -16l104 178l95 -54l-97 -163q244 -137 244 -506q0 -161 -56 -283t-163 -192q-63 -40 -137.5 -55t-212.5 -15h-291l-82 -141l-92 59zM1303 924l-461 -787h235q203 0 295 99t92 317q0 284 -161 371z" />
    <glyph glyph-name="reflexsubset" unicode="&#x2286;" horiz-adv-x="2048" 
d="M1571 340v-127h-574q-139 0 -210 17.5t-132 66.5q-178 138 -178 430q0 300 203 434q57 38 123.5 52t193.5 14h574v-127h-596q-186 0 -270 -90.5t-84 -288.5q0 -200 84 -290.5t270 -90.5h596zM1571 113v-113h-1094v113h1094z" />
    <glyph glyph-name="reflexsuperset" unicode="&#x2287;" horiz-adv-x="2048" 
d="M477 340h596q186 0 270 90.5t84 290.5q0 199 -84 289t-270 90h-596v127h574q105 0 159 -7.5t107 -29.5q120 -51 187 -175t67 -296q0 -307 -201 -440q-59 -38 -125.5 -52t-193.5 -14h-574v127zM1571 113v-113h-1094v113h1094z" />
    <glyph glyph-name="uni2295" unicode="&#x2295;" horiz-adv-x="2048" 
d="M1034 1288q127 0 244.5 -51.5t202.5 -137.5t135.5 -204.5t50.5 -247.5q0 -175 -87 -324t-236 -236t-324 -87q-174 0 -321.5 85.5t-233.5 233t-86 320.5q0 134 51 254t138.5 206.5t209 137.5t256.5 51zM1087 709h461q-23 183 -150.5 310t-310.5 150v-460zM967 709v460
q-183 -23 -310.5 -150t-150.5 -310h461zM1087 588v-461q183 23 311 150.5t150 310.5h-461zM967 588h-461q22 -183 150 -310.5t311 -150.5v461z" />
    <glyph glyph-name="circlemultiply" unicode="&#x2297;" horiz-adv-x="2048" 
d="M1036 1288q169 0 315 -87t232 -235.5t86 -320.5q0 -175 -86.5 -323.5t-234.5 -235t-322 -86.5q-176 0 -324.5 86.5t-234.5 236t-86 326.5q0 174 87 321t238 232.5t330 85.5zM1024 731l326 326q-140 112 -326 112t-326 -112zM938 645l-326 326q-112 -144 -112 -326
q0 -181 112 -326zM1110 645l326 -326q110 141 110 326q0 183 -110 326zM1024 559l-326 -326q134 -112 326 -112t326 112z" />
    <glyph glyph-name="perpendicular" unicode="&#x22a5;" horiz-adv-x="2048" 
d="M963 1225h124v-1100h549v-125h-1224v125h551v1100z" />
    <glyph glyph-name="house" unicode="&#x2302;" horiz-adv-x="1236" 
d="M84 0v821l534 672l535 -672v-821h-1069zM188 104h861v672l-431 553l-430 -553v-672z" />
    <glyph glyph-name="revlogicalnot" unicode="&#x2310;" horiz-adv-x="1196" 
d="M1114 768v-143h-889v-449h-143v592h1032z" />
    <glyph glyph-name="integraltp" unicode="&#x2320;" horiz-adv-x="1236" 
d="M694 -446h-149v1499q0 270 9 403t34 232q22 89 68 135.5t112 46.5q54 0 91.5 -32.5t37.5 -78.5q0 -43 -28.5 -72.5t-69.5 -29.5t-72 31q-21 24 -39 24q-37 0 -37 -57q0 -16 13 -156q30 -317 30 -428v-1517z" />
    <glyph glyph-name="integralbt" unicode="&#x2321;" horiz-adv-x="1236" 
d="M543 1870h149v-1499q0 -270 -9 -403t-34 -232q-22 -89 -68 -135.5t-112 -46.5q-54 0 -91.5 32t-37.5 78q0 43 28.5 73t69.5 30t72 -31q22 -25 39 -25q37 0 37 58q0 15 -13 155q-30 317 -30 428v1518z" />
    <glyph glyph-name="angleleft" unicode="&#x2329;" horiz-adv-x="681" 
d="M119 487l356 697q26 49 62 49q26 0 26 -25q0 -20 -10 -47l-268 -674l268 -673q10 -27 10 -47q0 -23 -26 -23q-39 0 -62 47z" />
    <glyph glyph-name="angleright" unicode="&#x232a;" horiz-adv-x="681" 
d="M563 487l-356 -696q-27 -47 -62 -47q-26 0 -26 25q0 22 10 45l268 673l-268 674q-10 30 -10 47q0 25 26 25q37 0 62 -49z" />
    <glyph glyph-name="SF100000" unicode="&#x2500;" horiz-adv-x="1449" 
d="M-299 444v136h2048v-136h-2048z" />
    <glyph glyph-name="SF110000" unicode="&#x2502;" horiz-adv-x="1280" 
d="M573 -512v2048h136v-2048h-136z" />
    <glyph glyph-name="SF010000" unicode="&#x250c;" horiz-adv-x="1449" 
d="M1749 580v-136h-956v-956h-136v1092h1092z" />
    <glyph glyph-name="SF030000" unicode="&#x2510;" horiz-adv-x="1449" 
d="M657 444h-956v136h1092v-1092h-136v956z" />
    <glyph glyph-name="SF020000" unicode="&#x2514;" horiz-adv-x="1449" 
d="M793 580h956v-136h-1092v1092h136v-956z" />
    <glyph glyph-name="SF040000" unicode="&#x2518;" horiz-adv-x="1449" 
d="M-299 444v136h956v956h136v-1092h-1092z" />
    <glyph glyph-name="SF080000" unicode="&#x251c;" horiz-adv-x="1449" 
d="M793 580h956v-136h-956v-956h-136v2048h136v-956z" />
    <glyph glyph-name="SF090000" unicode="&#x2524;" horiz-adv-x="1449" 
d="M657 444h-956v136h956v956h136v-2048h-136v956z" />
    <glyph glyph-name="SF060000" unicode="&#x252c;" horiz-adv-x="1449" 
d="M793 444v-956h-136v956h-956v136h2048v-136h-956z" />
    <glyph glyph-name="SF070000" unicode="&#x2534;" horiz-adv-x="1449" 
d="M657 580v956h136v-956h956v-136h-2048v136h956z" />
    <glyph glyph-name="SF050000" unicode="&#x253c;" horiz-adv-x="1449" 
d="M657 444h-956v136h956v956h136v-956h956v-136h-956v-956h-136v956z" />
    <glyph glyph-name="SF430000" unicode="&#x2550;" horiz-adv-x="1449" 
d="M-299 309v135h2048v-135h-2048zM-299 580v135h2048v-135h-2048z" />
    <glyph glyph-name="SF240000" unicode="&#x2551;" horiz-adv-x="1449" 
d="M522 -512v2048h135v-2048h-135zM793 -512v2048h135v-2048h-135z" />
    <glyph glyph-name="SF510000" unicode="&#x2552;" horiz-adv-x="1449" 
d="M657 -512v1227h1092v-135h-956v-136h956v-135h-956v-821h-136z" />
    <glyph glyph-name="SF520000" unicode="&#x2553;" horiz-adv-x="1449" 
d="M793 444h-136v-956h-135v1092h1227v-136h-821v-956h-135v956z" />
    <glyph glyph-name="SF390000" unicode="&#x2554;" horiz-adv-x="1449" 
d="M657 580v-1092h-135v1227h1227v-135h-1092zM928 309v-821h-135v956h956v-135h-821z" />
    <glyph glyph-name="SF220000" unicode="&#x2555;" horiz-adv-x="1449" 
d="M657 309h-956v135h956v136h-956v135h1092v-1227h-136v821z" />
    <glyph glyph-name="SF210000" unicode="&#x2556;" horiz-adv-x="1449" 
d="M657 444v-956h-135v956h-821v136h1227v-1092h-135v956h-136z" />
    <glyph glyph-name="SF250000" unicode="&#x2557;" horiz-adv-x="1449" 
d="M793 580h-1092v135h1227v-1227h-135v1092zM522 309h-821v135h956v-956h-135v821z" />
    <glyph glyph-name="SF500000" unicode="&#x2558;" horiz-adv-x="1449" 
d="M657 1536h136v-821h956v-135h-956v-136h956v-135h-1092v1227z" />
    <glyph glyph-name="SF490000" unicode="&#x2559;" horiz-adv-x="1449" 
d="M793 580v956h135v-956h821v-136h-1227v1092h135v-956h136z" />
    <glyph glyph-name="SF380000" unicode="&#x255a;" horiz-adv-x="1449" 
d="M657 444h1092v-135h-1227v1227h135v-1092zM928 715h821v-135h-956v956h135v-821z" />
    <glyph glyph-name="SF280000" unicode="&#x255b;" horiz-adv-x="1449" 
d="M657 715v821h136v-1227h-1092v135h956v136h-956v135h956z" />
    <glyph glyph-name="SF270000" unicode="&#x255c;" horiz-adv-x="1449" 
d="M657 580h136v956h135v-1092h-1227v136h821v956h135v-956z" />
    <glyph glyph-name="SF260000" unicode="&#x255d;" horiz-adv-x="1449" 
d="M793 444v1092h135v-1227h-1227v135h1092zM522 715v821h135v-956h-956v135h821z" />
    <glyph glyph-name="SF360000" unicode="&#x255e;" horiz-adv-x="1449" 
d="M657 1536h136v-821h956v-135h-956v-136h956v-135h-956v-821h-136v2048z" />
    <glyph glyph-name="SF370000" unicode="&#x255f;" horiz-adv-x="1449" 
d="M928 444v-956h-135v2048h135v-956h821v-136h-821zM657 -512h-135v2048h135v-2048z" />
    <glyph glyph-name="SF420000" unicode="&#x2560;" horiz-adv-x="1449" 
d="M522 -512v2048h135v-2048h-135zM928 715h821v-135h-956v956h135v-821zM928 309v-821h-135v956h956v-135h-821z" />
    <glyph glyph-name="SF190000" unicode="&#x2561;" horiz-adv-x="1449" 
d="M657 715v821h136v-2048h-136v821h-956v135h956v136h-956v135h956z" />
    <glyph glyph-name="SF200000" unicode="&#x2562;" horiz-adv-x="1449" 
d="M522 444h-821v136h821v956h135v-2048h-135v956zM793 -512v2048h135v-2048h-135z" />
    <glyph glyph-name="SF230000" unicode="&#x2563;" horiz-adv-x="1449" 
d="M928 -512h-135v2048h135v-2048zM522 715v821h135v-956h-956v135h821zM522 309h-821v135h956v-956h-135v821z" />
    </font>
</defs>
</svg>
